[bittorrent] Kevn Kinney And Peter Buck City Winery Atlanta, Georgia 8/23/2016 (Schoeps CCM4V'S FOB)

Automated Mailer noreply-bt.e at etree.org
Wed Aug 24 05:21:15 UTC 2016


Band:           Kevn Kinney
Torrent Name:   Kevn Kinney And Peter Buck City Winery Atlanta, Georgia 8/23/2016 (Schoeps CCM4V'S FOB)
Uploaded by:    zmanatl
DB Link:        
Details:        http://bt.etree.org/details.php?id=588375

Contact the seeder at http://db.etree.org/zmanatl

If the link to this show does not work, it was probably removed for
being non-trade-friendly.

Description / text file:
-------------------------
Kevn Kinney And Peter Buck
City Winery
Atlanta, Georgia
8/23/2016 

Source: Schoeps CCM4V's>Lunatec V2>Benchmark AD2K>
Sound Devices 722 (24/44)
FOB/DFC/KFC/ZFC/AARP Clamped To Rail At Soundboard, 7 1/2' High
DSP: Sound Devices 722>Sound Forge 10.0>CD Wave>flac(16)
ID3 Tagged In Foobar 2000
Recorded By: Z-Man
Seeded By: Z-Man

Disc I 

01 Greeting
02 Trail Of Seasons
03 ufo's ???
04 Chico
05 *Gotta Get Out Of Here >
06 #Iron Mountain
07 #Indian Song
08 #?
09 ? >
10 It's Alright Mama >
11 Mystery Train >
12 ?
13 *@Spoonful 
14 *@I've Got My Mojo Workin'

Disc II 

01 *@Ain't Nothing You Can Do 
02 #^This Train Don't Stop At The Millworks Anymore
03 ^? (First Time Played)
04 Kevn Banter
05 MacDougal Blues
06 Kevn Banter
07 *#Hey Landlord I Can't Pay The Rent
Encore I:
08 Kevn Banter
09 *#+A Good Country Mile
10 *#^Straight To Hell
11 *#^Here Come The Regulars
Encore II:
12 %?

* With Tyler Neal On Guitar
# With Amanda ? On Violin
@ With With Col. Bruce Hampton On Guitar And Vocals
^ With Dave Barbe On Bass
+ With Dave Barbe On Guitar
% Kevn Solo Acoustic

Kevn Kinney - Acoustic Guitar, Electric Guitar, And Vocals
Tim Nielson - Bass, Mandolin, And Vocals
Dave Johnson - Drums 
Peter Buck - Guitar, Mandolin, Lapsteel Guitar, And Bass


kevn2016-08-23d01t01.flac:7151fcd8caf7ad5a460d71efaa04986d
kevn2016-08-23d01t02.flac:4d81765067883a2bbbe25f8bf18c9a3c
kevn2016-08-23d01t03.flac:fbd9a5b0fd34affdd11aff8ef1465a7f
kevn2016-08-23d01t04.flac:975fa9086d3b95d2566656f24c7cafde
kevn2016-08-23d01t05.flac:7fae5da4c4e69a3ccc701a79fb5bb2b4
kevn2016-08-23d01t06.flac:ab032864f3d76496816704a0a31f1ddd
kevn2016-08-23d01t07.flac:299bda09d7062963a7134dfa28e42c21
kevn2016-08-23d01t08.flac:090706ed56a6a6359c030b2251654eef
kevn2016-08-23d01t09.flac:16f243ac9fcfceb5d7f85eb35f825fef
kevn2016-08-23d01t10.flac:cfcd07dadd1db5067b038135325d1ce8
kevn2016-08-23d01t11.flac:f44f3615203784056b875ca002d90f93
kevn2016-08-23d01t12.flac:2677a9d19d4647b740e4e2ebfbad6d5f
kevn2016-08-23d01t13.flac:89904a04a432edd82a69920044b0e227
kevn2016-08-23d01t14.flac:4750f7e653c2cdc61dd95e06c06d775f
kevn2016-08-23d02t01.flac:9cf9a324c1f24d39685b89bf40027282
kevn2016-08-23d02t02.flac:cee0a056275b1fdde64279305e6bc370
kevn2016-08-23d02t03.flac:83ac295092ffa4af44a256b2a91c4efc
kevn2016-08-23d02t04.flac:3b9c616c50af55fad48f1187f480b8a7
kevn2016-08-23d02t05.flac:589fcc4825732857522d1d26f50c531c
kevn2016-08-23d02t06.flac:cf5c5f2cd446e6fb99f94d7113ab7c48
kevn2016-08-23d02t07.flac:4cb35ec533c0395cac2c50ff07c785b8
kevn2016-08-23d02t08.flac:d7c00ce5d28fa90a64154d6c678990db
kevn2016-08-23d02t09.flac:0f0ea36ab98b092f4e2e8990eca74f39
kevn2016-08-23d02t10.flac:61a584af8ba3b66223012edcc4181d34
kevn2016-08-23d02t11.flac:bc17094b12312a7b13d80bc864401c59
kevn2016-08-23d02t12.flac:c4bc3135f03198307edfc855243197e6

 length     expanded size    cdr  WAVE problems  fmt   ratio  filename
     2:31.19       26681132 B   ---   --   ---xx   flac  0.3878  kevn2016-08-23d01t01.flac
     5:13.66       55368476 B   ---   --   ---xx   flac  0.4441  kevn2016-08-23d01t02.flac
     4:41.09       49589612 B   ---   --   ---xx   flac  0.4624  kevn2016-08-23d01t03.flac
     8:25.28       89147900 B   ---   --   ---xx   flac  0.3754  kevn2016-08-23d01t04.flac
     6:31.70       69137084 B   ---   --   ---xx   flac  0.4452  kevn2016-08-23d01t05.flac
     6:25.22       67965788 B   ---   --   ---xx   flac  0.3732  kevn2016-08-23d01t06.flac
     9:22.44       99240332 B   ---   --   ---xx   flac  0.4107  kevn2016-08-23d01t07.flac
     7:47.13       82409420 B   ---   --   ---xx   flac  0.4172  kevn2016-08-23d01t08.flac
     3:53.16       41138876 B   ---   --   ---xx   flac  0.4787  kevn2016-08-23d01t09.flac
     0:22.11        3906716 B   ---   --   ---xx   flac  0.5477  kevn2016-08-23d01t10.flac
     0:51.59        9135212 B   ---   --   ---xx   flac  0.4961  kevn2016-08-23d01t11.flac
     2:31.07       26652908 B   ---   --   ---xx   flac  0.3927  kevn2016-08-23d01t12.flac
     3:18.46       35035436 B   ---   --   ---xx   flac  0.3798  kevn2016-08-23d01t13.flac
     4:34.01       48335996 B   ---   --   ---xx   flac  0.4615  kevn2016-08-23d01t14.flac
     8:48.18       93181580 B   ---   --   ---xx   flac  0.3982  kevn2016-08-23d02t01.flac
     8:50.07       93508508 B   ---   --   ---xx   flac  0.3873  kevn2016-08-23d02t02.flac
     4:07.25       43629644 B   ---   --   ---xx   flac  0.3551  kevn2016-08-23d02t03.flac
     2:11.14       23141372 B   ---   --   ---xx   flac  0.2928  kevn2016-08-23d02t04.flac
     4:57.53       52515500 B   ---   --   ---xx   flac  0.4234  kevn2016-08-23d02t05.flac
     3:58.50       42100844 B   ---   --   ---xx   flac  0.2990  kevn2016-08-23d02t06.flac
     4:02.43       42789980 B   ---   --   ---xx   flac  0.5207  kevn2016-08-23d02t07.flac
     1:19.69       14097932 B   ---   --   ---xx   flac  0.2982  kevn2016-08-23d02t08.flac
    13:02.48      138057740 B   ---   --   ---xx   flac  0.3812  kevn2016-08-23d02t09.flac
     8:33.01       90495596 B   ---   --   ---xx   flac  0.4656  kevn2016-08-23d02t10.flac
     7:48.05       82567004 B   ---   --   ---xx   flac  0.4063  kevn2016-08-23d02t11.flac
     3:07.46       33095036 B   ---   --   ---xx   flac  0.3967  kevn2016-08-23d02t12.flac
   137:16.40     1452925624 B                            0.4084  (26 files)






 












More information about the bittorrent mailing list