[bittorrent] New Yankee Allstars Darwin's Burgers And Blues Marietta, Georgia 8/22/2016 (Schoeps CCM4V'S FOB)

Automated Mailer noreply-bt.e at etree.org
Tue Aug 23 16:21:10 UTC 2016


Band:           Other
Torrent Name:   New Yankee Allstars Darwin's Burgers And Blues Marietta, Georgia 8/22/2016 (Schoeps CCM4V'S FOB)
Uploaded by:    zmanatl
DB Link:        
Details:        http://bt.etree.org/details.php?id=588365

Contact the seeder at http://db.etree.org/zmanatl

If the link to this show does not work, it was probably removed for
being non-trade-friendly.

Description / text file:
-------------------------
New Yankee Allstars
Darwi's Burgers And Blues
Marietta, Georgia
8/22/2016 

Source: Schoeps CCM4V's>Lunatec V2>Benchmark AD2K>
Sound Devices 722 (24/44)
FOB/DFC/KFC/ZFC/AARP 3' From Stage, 4 1/2' High
DSP: Sound Devices 722>Sound Forge 10.0>CD Wave>flac(16)
ID3 Tagged In Foobar 2000
Recorded By: Z-Man
Seeded By: Z-Man

Disc I 1st Set

01 Greeting
02 In Charlotte On The Way To Iowa
03 Walking In The Rain With Little Shoes
04 *Pokemon Go
05 *Yuengling
06 *Vape Away 
07 *Football

Disc II 2nd Set
Mike Martin Band

01 The Trouser Trout
02 Epiphany
03 Peace Be With You

Disc III 3rd Set

01 *#Child Rearing
02 *#Friends
03 *#Hit Record
04 *#New Orleans
05 Band Introductions
06 *Garbage Truck
07 *Making Cookies
08 *Salacoa Road

* With Tony Erice On Congas
# With Joel Edwards On Keyboards

John McKnight - Drums And Vocals
Mike Martin - Guitar And Vocals
Jon Schwenke - Bass And Vocals

nya2016-08-22d01t01.flac:5478d3fac4c7d109d1b0ef59e5615fd7
nya2016-08-22d01t02.flac:d9f830a0ae7ef0c63fc937b432a323ce
nya2016-08-22d01t03.flac:5d65053ea8c3e719ad04abdd8025c73c
nya2016-08-22d01t04.flac:929e6f4a6a8f5732b9fcf6c495ed93c9
nya2016-08-22d01t05.flac:e23ac21d06fa9b7f0be95c60ada7fcce
nya2016-08-22d01t06.flac:dc99f175705bf648a4f5787b7b268395
nya2016-08-22d01t07.flac:24c1a78d53320e7b8af3d606bef6dde3
nya2016-08-22d02t01.flac:3d78e04444da226ea8f99789d9c89e83
nya2016-08-22d02t02.flac:6e04448d2fc2f222c793aa6ab06adb9a
nya2016-08-22d02t03.flac:e21d22af6bd434b2e47f84ecbe0b57b5
nya2016-08-22d03t01.flac:064297220b5d6f03164d78d845a64577
nya2016-08-22d03t02.flac:2eb937e365bb417249546c2fb0ec0832
nya2016-08-22d03t03.flac:6e59d5468bea616cb16dfea1193a99be
nya2016-08-22d03t04.flac:52679aed24d367a6c5a82df634b824ff
nya2016-08-22d03t05.flac:3d683bbfe24a8d75e7dcbb18fd48c5df
nya2016-08-22d03t06.flac:991be3a23117c94e7e22a72248a30f21
nya2016-08-22d03t07.flac:4308a35f92814dca575564a5f55679c0
nya2016-08-22d03t08.flac:7c14b66ca8da43282efecd9f2b0be7bb

length     expanded size    cdr  WAVE problems  fmt   ratio  filename
     1:04.65       11442524 B   ---   --   ---xx   flac  0.3089  nya2016-08-22d01t01.flac
    15:04.41      159562076 B   ---   --   ---xx   flac  0.4968  nya2016-08-22d01t02.flac
    12:08.45      128525084 B   ---   --   ---xx   flac  0.4349  nya2016-08-22d01t03.flac
    16:04.06      170063756 B   ---   --   ---xx   flac  0.5213  nya2016-08-22d01t04.flac
     9:43.62      102987068 B   ---   --   ---xx   flac  0.5423  nya2016-08-22d01t05.flac
    16:13.28      171703100 B   ---   --   ---xx   flac  0.4488  nya2016-08-22d01t06.flac
     6:39.22       70435388 B   ---   --   ---xx   flac  0.5607  nya2016-08-22d01t07.flac
     4:47.51       50746796 B   ---   --   ---xx   flac  0.5633  nya2016-08-22d02t01.flac
     6:26.23       68144540 B   ---   --   ---xx   flac  0.5398  nya2016-08-22d02t02.flac
     9:09.23       96897740 B   ---   --   ---xx   flac  0.4746  nya2016-08-22d02t03.flac
    11:01.17      116640428 B   ---   --   ---xx   flac  0.5227  nya2016-08-22d03t01.flac
     7:13.14       76414172 B   ---   --   ---xx   flac  0.4499  nya2016-08-22d03t02.flac
    12:50.43      135929180 B   ---   --   ---xx   flac  0.5616  nya2016-08-22d03t03.flac
    14:31.61      153787916 B   ---   --   ---xx   flac  0.5004  nya2016-08-22d03t04.flac
     0:43.55        7714604 B   ---   --   ---xx   flac  0.3234  nya2016-08-22d03t05.flac
    11:45.15      124397324 B   ---   --   ---xx   flac  0.5140  nya2016-08-22d03t06.flac
     8:20.19       88244732 B   ---   --   ---xx   flac  0.3936  nya2016-08-22d03t07.flac
     8:09.56       86391356 B   ---   --   ---xx   flac  0.4949  nya2016-08-22d03t08.flac
   171:57.46     1820027784 B                            0.4965  (18 files)







 








More information about the bittorrent mailing list