[bittorrent] Hard Working Americans BiJou Theatre Knoxville, Tennessee 8/21/2016 (Schoeps CCM4V'S FOB)

Automated Mailer noreply-bt.e at etree.org
Mon Aug 22 19:34:34 UTC 2016


Band:           Todd Snider
Torrent Name:   Hard Working Americans BiJou Theatre Knoxville, Tennessee 8/21/2016 (Schoeps CCM4V'S FOB)
Uploaded by:    zmanatl
DB Link:        
Details:        http://bt.etree.org/details.php?id=588346

Contact the seeder at http://db.etree.org/zmanatl

If the link to this show does not work, it was probably removed for
being non-trade-friendly.

Description / text file:
-------------------------
Hardworking Americans
BiJou Theatre
Knoxville, Tennessee
8/21/2016 

Source: Schoeps CCM4V's>Lunatec V2>Benchmark AD2K>
Sound Devices 722 (24/44)
FOB/DFC/KFC/ZFC/AARP 6' Center Section, Row J, Between Seats 16 & 17,, 4 1/2' High
DSP: Sound Devices 722>Sound Forge 10.0>CD Wave>flac(16)
ID3 Tagged In Foobar 2000
Recorded By: Z-Man
Seeded By: Z-Man

Disc I 1st Set

01 Opening Statement
02 It Runs Together
03 Half Ass Moses >
04 Dope Is Dope 
05 Burn Out Shoes
06 Roman Candles
07 Ascending Into Madness
08 Throwing The Goats

Disc II 1st Set Con't

01 Something Else
02 Massacre
03 *High Price Of Inspiration 
04 Acid
05 Purple Mountain Jamboree
Encore I:
06 Todd Banter
07 Blackland Farmer >
08 This One Goes Out To The One I Love >
09 Blackland Farmer
10 Another Train
11 Down To The Well

Disc III Encore Con't

01 The Mountain Song 
02 Stomp And Holler
03 Straight To Hell
04 Welfare Music
05 Mr. President
06 Run A Mile >
07 I Don't Have A Gun 
08 Wrecking Ball
Encore II:
09 I've Got All The Fuckin' Work I Need >
10 Rock And Roll Music
11 PA Music: I've Got All The Fuckin' Work I Need/Outro

* Dedicated To Guy Clark

Show Notes:

The First Set Was Actually The New Album Played Top To Bottom. 
The First Encore Was Actually Their First Album Played Top To Bottom. 

hwa2016-08-21d01t01.flac:81f763739177c8b6db5cb8d8f3075e7a
hwa2016-08-21d01t02.flac:85f2505553c7442a8cea2342157191fb
hwa2016-08-21d01t03.flac:88f79aa8b9757c9ead7d20caf27187a9
hwa2016-08-21d01t04.flac:253f20ff38992763f6a17886a4d110bd
hwa2016-08-21d01t05.flac:38d7ddac6beea05f113e8fcbb74a8d4c
hwa2016-08-21d01t06.flac:8f0f04563d3c56f1a4332ca17458d112
hwa2016-08-21d01t07.flac:40734f958098d366878194cd0189bf17
hwa2016-08-21d01t08.flac:1e38445914aee6aaf50c28ed4bead71e
hwa2016-08-21d02t01.flac:8951a0f6d3c125a6d08bbb3ea647d586
hwa2016-08-21d02t02.flac:f85e76c064186c51e8a1d33cb99aaa6c
hwa2016-08-21d02t03.flac:2b46858084bc5ab039c098f06f3d6022
hwa2016-08-21d02t04.flac:c14c3446d26a821a63b11b5554b212ab
hwa2016-08-21d02t05.flac:e1ffe695f99f261b027797482e1d8fd7
hwa2016-08-21d02t06.flac:a65cf2be8408ca0e8f34df5c757058c4
hwa2016-08-21d02t07.flac:734143f0c2a6d7ed836bfb55409a0372
hwa2016-08-21d02t08.flac:3d7177f918999564690ba6bec618d656
hwa2016-08-21d02t09.flac:ebf7bbda166ce4a8e9f4f53a8c74535f
hwa2016-08-21d02t10.flac:94d2be3b0b16e0c80dd7a58ae9dcb2f5
hwa2016-08-21d02t11.flac:d02dfaaa710743286d7ec5ef41384d83
hwa2016-08-21d03t01.flac:83ce199eb01b38a98f4d62b59225ea36
hwa2016-08-21d03t02.flac:c9cddace8247b61f63e0b23b635bc106
hwa2016-08-21d03t03.flac:5a35d1bcbbda66c33f77127b259484e0
hwa2016-08-21d03t04.flac:1841db39c2edca30894aa3d54d04b295
hwa2016-08-21d03t05.flac:7568b8a1b2fad6c5c48d415ad7b3fd2d
hwa2016-08-21d03t06.flac:d8833abd6c30c51a69c47f61448f2b37
hwa2016-08-21d03t07.flac:0f7d60740305c8a72016d9061848f692
hwa2016-08-21d03t08.flac:0da8b8067230b68d1bd3dbd4ace20be8
hwa2016-08-21d03t09.flac:60cd607f8f3fac3c0d64e67233bd192e
hwa2016-08-21d03t10.flac:b68bd2183a83d5ce56315970969ce930
hwa2016-08-21d03t11.flac:570f1142073900e1292d8d8f8ae7edd7

  length     expanded size    cdr  WAVE problems  fmt   ratio  filename
     7:51.26       83145596 B   ---   --   ---xx   flac  0.4203  hwa2016-08-21d01t01.flac
     5:43.50       60622844 B   ---   --   ---xx   flac  0.4358  hwa2016-08-21d01t02.flac
     4:55.51       52157996 B   ---   --   ---xx   flac  0.5462  hwa2016-08-21d01t03.flac
     5:39.65       59952524 B   ---   --   ---xx   flac  0.5097  hwa2016-08-21d01t04.flac
     7:26.36       78759116 B   ---   --   ---xx   flac  0.5219  hwa2016-08-21d01t05.flac
     6:34.19       69546332 B   ---   --   ---xx   flac  0.4487  hwa2016-08-21d01t06.flac
     5:49.70       61728284 B   ---   --   ---xx   flac  0.4426  hwa2016-08-21d01t07.flac
     6:18.10       66702764 B   ---   --   ---xx   flac  0.5730  hwa2016-08-21d01t08.flac
     9:27.19      100063532 B   ---   --   ---xx   flac  0.5389  hwa2016-08-21d02t01.flac
     7:10.21       75901436 B   ---   --   ---xx   flac  0.4547  hwa2016-08-21d02t02.flac
     5:28.30       57929804 B   ---   --   ---xx   flac  0.3819  hwa2016-08-21d02t03.flac
     7:15.13       76764620 B   ---   --   ---xx   flac  0.5668  hwa2016-08-21d02t04.flac
     4:03.56       42996956 B   ---   --   ---xx   flac  0.5680  hwa2016-08-21d02t05.flac
     0:52.00        9172844 B   ---   --   ---xx   flac  0.3453  hwa2016-08-21d02t06.flac
     3:56.22       41682188 B   ---   --   ---xx   flac  0.4924  hwa2016-08-21d02t07.flac
     1:12.49       12816092 B   ---   --   ---xx   flac  0.4975  hwa2016-08-21d02t08.flac
     6:41.28       70802300 B   ---   --   ---xx   flac  0.5381  hwa2016-08-21d02t09.flac
     6:04.51       64329596 B   ---   --   ---xx   flac  0.5761  hwa2016-08-21d02t10.flac
     6:10.48       65380940 B   ---   --   ---xx   flac  0.4853  hwa2016-08-21d02t11.flac
     7:39.01       80969996 B   ---   --   ---xx   flac  0.4976  hwa2016-08-21d03t01.flac
     6:03.17       64073228 B   ---   --   ---xx   flac  0.5553  hwa2016-08-21d03t02.flac
     7:23.48       78258140 B   ---   --   ---xx   flac  0.4633  hwa2016-08-21d03t03.flac
     4:03.25       42924044 B   ---   --   ---xx   flac  0.5120  hwa2016-08-21d03t04.flac
     4:47.36       50711516 B   ---   --   ---xx   flac  0.4519  hwa2016-08-21d03t05.flac
     6:25.06       67928156 B   ---   --   ---xx   flac  0.5632  hwa2016-08-21d03t06.flac
     6:22.52       67507148 B   ---   --   ---xx   flac  0.4179  hwa2016-08-21d03t07.flac
     5:54.52       62567948 B   ---   --   ---xx   flac  0.2991  hwa2016-08-21d03t08.flac
     1:15.66       13385276 B   ---   --   ---xx   flac  0.4057  hwa2016-08-21d03t09.flac
     4:22.25       46275644 B   ---   --   ---xx   flac  0.5634  hwa2016-08-21d03t10.flac
     2:41.61       28543916 B   ---   --   ---xx   flac  0.3539  hwa2016-08-21d03t11.flac
   165:41.03     1753600776 B                            0.4890  (30 files)







More information about the bittorrent mailing list