[bittorrent] gd1988-09-03.upg-sbd.tobin.136750.flac16

Automated Mailer noreply-bt.e at etree.org
Sun Aug 21 23:22:17 UTC 2016


Band:           Grateful Dead
Torrent Name:   gd1988-09-03.upg-sbd.tobin.136750.flac16
Uploaded by:    greendude
DB Link:        
Details:        http://bt.etree.org/details.php?id=588336

Contact the seeder at http://db.etree.org/greendude

If the link to this show does not work, it was probably removed for
being non-trade-friendly.

Description / text file:
-------------------------
Grateful Dead 
Capital Centre, 
Landover , MD
September 3, 1988

Patched and pitch corrected soundboard

Set 1:
d1t01 - Let The Good Times Roll
d1t02 - Feel Like A Stranger -> 
d1t03 - Franklin's Tower -> 
d1t04 - Little Red Rooster
d1t05 - Peggy-O
d1t06 - Me And My Uncle -> 
d1t07 - Big River
d1t08 - Bird Song

Set 2:
d2t01 - Box Of Rain
d2t02 - Victim Or The Crime -> 
d2t03 - Foolish Heart -> 
d2t04 - Man Smart, Woman Smarter -> 
d2t05 - Eyes Of The World -> 
d2t06 - Drums -> 
d3t01 - Space -> 
d3t02 - Goin' Down The Road Feeling Bad -> 
d3t03 - I Need A Miracle > 
d3t04 - Morning Dew

Encore
d3t05 - One More Saturday Night
d3t06 - Ripple  

Audio Information:
Original SBD (shnid = 27749 & 31224)

Recording Info:
SBD -> Cassette Master -> Dat (SV3800/48k)

Transfer Info:
Dat (Sony D8) -> RME Hammerfall Digiface -> Sony Vaio C1VP ->
Samplitude v7.02 Professional -> FLAC
(2 Discs Audio / 2 Discs FLAC)

Transferred and Edited By Charlie Miller
charliemiller87 at earthlink.net
1/17/05

Notes:
-- There is a 2 Min patch from an AUD source between Space and GDTRFB.

If you have the cass master sbd from this show (shnid=27749), replace the last 
3 tracks with these 3 tracks which will give you the encores from the Vault dat SBD.

SBD was patched with:
AUD (shnid = 131130)

2 Nakamichi CM100s w/10v batt/cP4 shotguns(XY)>Sony TCD5M (Maxell MX90s)

Transfer: Nakamichi CR7A>Lucid AD9624>Fostex D5>DAT>
Tascam DA20MKII>Tascam CDRW700>CDR>
Wavelab 6>CDWave>Flac Frontend(Level 6)

Recording by DATBRAD
Master cassette transfer to DAT by Mark Lynn
DAT to CDR and conversion to wav>flac by DATBRAD
---------------------------------------------------------
- Mixed by kevtobin at yahoo.com
- FLAC conversion 20-AUG-2016 - Trader Little Helper
- Tagged 20-AUG-2016 - Tag&Rename
---------------------------------------------------------

Brokedown House Production

    length     expanded size    cdr  WAVE problems  fmt   ratio  filename
     4:13.44       44732732 B   ---   --   -----    wav  1.0000  gd1988-09-03d1t01.wav
     7:55.60       83931164 B   ---   --   -----    wav  1.0000  gd1988-09-03d1t02.wav
     7:28.63       79175420 B   ---   --   -----    wav  1.0000  gd1988-09-03d1t03.wav
     8:49.26       93376796 B   ---   --   -----    wav  1.0000  gd1988-09-03d1t04.wav
     8:15.45       87423884 B   ---   --   -----    wav  1.0000  gd1988-09-03d1t05.wav
     3:12.67       34026428 B   ---   --   -----    wav  1.0000  gd1988-09-03d1t06.wav
     7:33.37       79996268 B   ---   --   -----    wav  1.0000  gd1988-09-03d1t07.wav
    13:10.31      139428956 B   ---   --   -----    wav  1.0000  gd1988-09-03d1t08.wav
     5:19.55       56401004 B   ---   --   -----    wav  1.0000  gd1988-09-03d2t01.wav
     5:30.47       58322588 B   ---   --   -----    wav  1.0000  gd1988-09-03d2t02.wav
     9:11.36       97281116 B   ---   --   -----    wav  1.0000  gd1988-09-03d2t03.wav
     7:08.44       75602732 B   ---   --   -----    wav  1.0000  gd1988-09-03d2t04.wav
     6:37.32       70106108 B   ---   --   -----    wav  1.0000  gd1988-09-03d2t05.wav
     7:59.17       84535628 B   ---   --   -----    wav  1.0000  gd1988-09-03d2t06.wav
     6:44.65       71418524 B   ---   --   -----    wav  1.0000  gd1988-09-03d3t01.wav
     5:32.68       58724780 B   ---   --   -----    wav  1.0000  gd1988-09-03d3t02.wav
     3:50.23       40626140 B   ---   --   -----    wav  1.0000  gd1988-09-03d3t03.wav
    13:30.20      142931084 B   ---   --   -----    wav  1.0000  gd1988-09-03d3t04.wav
     5:07.51       54274796 B   ---   --   -----    wav  1.0000  gd1988-09-03d3t05.wav
     4:45.66       50429276 B   ---   --   -----    wav  1.0000  gd1988-09-03d3t06.wav
   141:58.72     1502745424 B                            1.0000  (20 files)




More information about the bittorrent mailing list