[bittorrent] ggw2016-08-19.136756.sbd.flac24

Automated Mailer noreply-bt.e at etree.org
Sun Aug 21 20:04:59 UTC 2016


Band:           Golden Gate Wingmen
Torrent Name:   ggw2016-08-19.136756.sbd.flac24
Uploaded by:    furnab2lax
DB Link:        
Details:        http://bt.etree.org/details.php?id=588331

Contact the seeder at http://db.etree.org/furnab2lax

If the link to this show does not work, it was probably removed for
being non-trade-friendly.

Description / text file:
-------------------------
Golden Gate Wingmen
Friday, August 19, 2016
Martyr's,
Chicago, IL

Recording: Soundboard > Zoom H2 @ 24/48
Lineage: SDNC card > Audacity for edits, tracking and volume adjustment >
flac level 8 and checksums with traderslittlehelper > tagged with mp3tag

Recording and all else by arfarf.

--Set One--
01 tuning
02 Help On The Way ->
03 Slipknot
04 Nobody Told Me
05 To Ramona
06 What's Become Of Mary
07 The Rain Song
08 Come Together

--Set Two--
01 tuning
02 Feel Like Dynamite
03 Seen Love
04 Hearts And Bones
05 Lazy River Road
06 The Ladder
07 Walking In Your Footsteps
08 Terrapin Station ->
09 Throwing Stones ->
10 Not Fade Away
--Encore--
11 applause
12 Ripple

John Kadlecik - guitar, vocals
Jeff Chimenti - keyboards
Reed Mathis - bass, vocals
Jay Lane - drums, vocals

Thanks to owner Ray, house engineer Ted and soundman Mike of Martyr's, 
and to Alan Powell for sharing his patch bay.

    length     expanded size    cdr  WAVE problems  fmt   ratio  filename
     0:52.773      15198764 B   cxx   --   ---xx   flac  0.5691  ggw2016-08-19s1t01.flac
     8:09.947     141104684 B   cxx   --   ---xx   flac  0.6483  ggw2016-08-19s1t02.flac
     6:44.227     116417324 B   cxx   --   ---xx   flac  0.6628  ggw2016-08-19s1t03.flac
    13:13.813     228618284 B   cxx   --   ---xx   flac  0.6590  ggw2016-08-19s1t04.flac
     8:23.347     144963884 B   cxx   --   ---xx   flac  0.6543  ggw2016-08-19s1t05.flac
    14:55.880     258013484 B   cxx   --   ---xx   flac  0.6616  ggw2016-08-19s1t06.flac
     8:39.800     149702444 B   cxx   --   ---xx   flac  0.6600  ggw2016-08-19s1t07.flac
    10:53.267     188140844 B   cxx   --   ---xx   flac  0.6811  ggw2016-08-19s1t08.flac
     2:21.893      40865324 B   cxx   --   ---xx   flac  0.5880  ggw2016-08-19s2t01.flac
    12:32.560     216737324 B   cxx   --   ---xx   flac  0.6649  ggw2016-08-19s2t02.flac
     8:09.773     141054764 B   cxx   --   ---xx   flac  0.6495  ggw2016-08-19s2t03.flac
    11:17.733     195187244 B   cxx   --   ---xx   flac  0.6449  ggw2016-08-19s2t04.flac
     8:32.693     147655724 B   cxx   --   ---xx   flac  0.6391  ggw2016-08-19s2t05.flac
    16:05.493     278062124 B   cxx   --   ---xx   flac  0.6465  ggw2016-08-19s2t06.flac
     7:00.693     121159724 B   cxx   --   ---xx   flac  0.6970  ggw2016-08-19s2t07.flac
    17:18.013     298947884 B   cxx   --   ---xx   flac  0.6530  ggw2016-08-19s2t08.flac
    11:24.533     197145644 B   cxx   --   ---xx   flac  0.6681  ggw2016-08-19s2t09.flac
     6:47.693     117415724 B   cxx   --   ---xx   flac  0.6779  ggw2016-08-19s2t10.flac
     1:27.347      25155884 B   cxx   --   ---xx   flac  0.5842  ggw2016-08-19s2t11.flac
     9:12.030     158984804 B   cxx   --   ---xx   flac  0.6498  ggw2016-08-19s2t12.flac
   184:03.510    3180531880 B                            0.6569  (20 files)




More information about the bittorrent mailing list