[bittorrent] gd1980-07-01.aud.136754.flac1644

Automated Mailer noreply-bt.e at etree.org
Sat Aug 20 20:48:37 UTC 2016


Band:           Grateful Dead
Torrent Name:   gd1980-07-01.aud.136754.flac1644
Uploaded by:    nfagdtrfb
DB Link:        
Details:        http://bt.etree.org/details.php?id=588318

Contact the seeder at http://db.etree.org/nfagdtrfb

If the link to this show does not work, it was probably removed for
being non-trade-friendly.

Description / text file:
-------------------------
GRATEFUL DEAD
Sports Arena
San Diego CA
07-01-1980

s1t01 Jack Straw >
s1t02 Franklin's Tower >
s1t03 El Paso
s1t04 Tennessee Jed
s1t05 Lazy Lightning > Supplication
s1t06 /Althea
s1t07 Lost Sailor >
s1t08 Saint of Circumstance

s2t01 China Cat Sunflower >
s2t02 I Know You Rider >
s2t03 C.C. Rider
s2t04 Peggy-O
s2t05 Far From Me
s2t06 Uncle John's Band >
s2t07 Playin' in the Band >
s2t08 Dr/ums >
s2t09 Space >
s2t10 Truckin' >
s2t11 Wharf Rat >
s2t12 Around & Around >
s2t13 Good Lovin'
s2t14 Encore: Alabama Getaway >
s2t15 Encore: Johnny B. Goode

Source: Unknown AUD, from the collection of Brian Schley.

Transfer: Old TDK SA90s > Nakamichi CR-5A > Edirol FA-66 > 
Wavelab 2448 > R8Brain > CD-Wave > TLH > FLAC 1644 tagged.

Caveat: Rough sounding AUD, hope someone can upgrade it...

    length     expanded size    cdr  WAVE problems  fmt   ratio  filename
     5:56.16       62836076 B   ---   --   ---xx   flac  0.5874  gd1980-07-01s1t01.flac
    13:03.33      138198860 B   ---   --   ---xx   flac  0.5875  gd1980-07-01s1t02.flac
     4:27.13       47129420 B   ---   --   ---xx   flac  0.5784  gd1980-07-01s1t03.flac
     8:48.32       93214508 B   ---   --   ---xx   flac  0.5879  gd1980-07-01s1t04.flac
     9:16.42       98177228 B   ---   --   ---xx   flac  0.5877  gd1980-07-01s1t05.flac
     8:34.33       90747260 B   ---   --   ---xx   flac  0.5876  gd1980-07-01s1t06.flac
     6:04.25       64268444 B   ---   --   ---xx   flac  0.5835  gd1980-07-01s1t07.flac
     6:19.56       66987356 B   ---   --   ---xx   flac  0.5869  gd1980-07-01s1t08.flac
     6:39.10       70407164 B   ---   --   ---xx   flac  0.5918  gd1980-07-01s2t01.flac
     7:47.05       82390604 B   ---   --   ---xx   flac  0.5873  gd1980-07-01s2t02.flac
     6:53.47       72963788 B   ---   --   ---xx   flac  0.5780  gd1980-07-01s2t03.flac
     7:26.51       78794396 B   ---   --   ---xx   flac  0.5618  gd1980-07-01s2t04.flac
     4:11.42       44375228 B   ---   --   ---xx   flac  0.5888  gd1980-07-01s2t05.flac
     7:23.36       78229916 B   ---   --   ---xx   flac  0.5826  gd1980-07-01s2t06.flac
    10:49.04      114493052 B   ---   --   ---xx   flac  0.5789  gd1980-07-01s2t07.flac
     8:47.02       92967548 B   ---   --   ---xx   flac  0.5521  gd1980-07-01s2t08.flac
     6:57.35       73641164 B   ---   --   ---xx   flac  0.5464  gd1980-07-01s2t09.flac
     7:39.66       81122876 B   ---   --   ---xx   flac  0.5652  gd1980-07-01s2t10.flac
    10:31.69      111470732 B   ---   --   ---xx   flac  0.5692  gd1980-07-01s2t11.flac
     4:10.31       44172956 B   ---   --   ---xx   flac  0.5753  gd1980-07-01s2t12.flac
     7:06.28       75212300 B   ---   --   ---xx   flac  0.5766  gd1980-07-01s2t13.flac
     5:05.39       53893772 B   ---   --   ---xx   flac  0.5814  gd1980-07-01s2t14.flac
     4:13.58       44765660 B   ---   --   ---xx   flac  0.5822  gd1980-07-01s2t15.flac
   168:13.23     1780460308 B                            0.5782  (23 files)

No errors occured.




More information about the bittorrent mailing list