[bittorrent] Mac Leaphart, Glenn Martin, And Ben Soulshine Pizza Factory Nashville, Tennessee 8/19/2016 (Schoeps CCM4V'S FOB)

Automated Mailer noreply-bt.e at etree.org
Sat Aug 20 05:52:59 UTC 2016


Band:           Other
Torrent Name:   Mac Leaphart, Glenn Martin, And Ben  Soulshine Pizza Factory Nashville, Tennessee 8/19/2016 (Schoeps CCM4V'S FOB)
Uploaded by:    zmanatl
DB Link:        
Details:        http://bt.etree.org/details.php?id=588308

Contact the seeder at http://db.etree.org/zmanatl

If the link to this show does not work, it was probably removed for
being non-trade-friendly.

Description / text file:
-------------------------
Mac Leaphart, Glenn Martin, And Ben Jackson
Soulshine Pizza Factory
Nashville, Tennessee
8/19/2016 

Source: Schoeps CCM4V's>Lunatec V2>Benchmark AD2K>
Sound Devices 722 (24/44)
FOB/DFC/KFC/ZFC/AARP 6' From Stage, 6 1/2' High
DSP: Sound Devices 722>Sound Forge 10.0>CD Wave>flac(16)
ID3 Tagged In Foobar 2000
Recorded By: Z-Man
Seeded By: Z-Man

Disc I 

01 I Needed You >
02 ?
03 Two More Bottles Of Wine
04 Leavin' Lonesome
05 ?
06 Cold Hard Truth
07 ?
08 Ain't Livin' Long Like This
09 The El Paso Kid
10 Bring It On Home To Me
11 The Window From The Sky
12 If You're Ever In Oklahoma
13 Happy Bachlorette Party Jennifer Smith
14 Dead Flowers
15 Nobody's Listenin'
16 Angel From Montgomery
17 Cold Coffee From Yesterday's News
18 King's Highway

Mac Leaphart - Guitar, Harmonica, And Vocals
Glenn Martin - Bass And Vocals
Ben Jackson - Drums

mac2016-08-19d01t01.flac:18a5504c37acb2df5be907536350b46e
mac2016-08-19d01t02.flac:7202bc439e877a0c7015ca615606da18
mac2016-08-19d01t03.flac:8087d5303a8b47c5aa2f1884f574303c
mac2016-08-19d01t04.flac:efa9280444976739aa027acb767d5489
mac2016-08-19d01t05.flac:2d8c31dc9666200fe3120dcc7cecdd82
mac2016-08-19d01t06.flac:43e7519c5df241a970a5755b49c6c430
mac2016-08-19d01t07.flac:3a2dfdc91d1af2bdfa2406bba78be14f
mac2016-08-19d01t08.flac:f20b6aa9cba7670a987ca49cb6f84199
mac2016-08-19d01t09.flac:c9661c4392a0e8f00057cab4a459790a
mac2016-08-19d01t10.flac:dbbb0e8c13c886a72bc70f5bb0eece12
mac2016-08-19d01t11.flac:36b29a5f53812af2126bb56c65997d5f
mac2016-08-19d01t12.flac:7a1d6a2ddbf7b90cc325897355bc3855
mac2016-08-19d01t13.flac:180a2e16ac7716b02d96556ea5bfea16
mac2016-08-19d01t14.flac:211f577bd7fe9b3e57dba809a22607f2
mac2016-08-19d01t15.flac:aa89dc82dccc16bd3784584909245809
mac2016-08-19d01t16.flac:280e5da7dd3134f6ed42d0a70cdc65b2
mac2016-08-19d01t17.flac:adb2e04dd10f8f1f02545c9c5bf3a2f4
mac2016-08-19d01t18.flac:aae43e3e5dc0a7815b36098f21515c42

length     expanded size    cdr  WAVE problems  fmt   ratio  filename
     3:43.40       39431324 B   ---   --   ---xx   flac  0.5721  mac2016-08-19d01t01.flac
     2:22.62       25194668 B   ---   --   ---xx   flac  0.5706  mac2016-08-19d01t02.flac
     3:32.25       37455644 B   ---   --   ---xx   flac  0.5818  mac2016-08-19d01t03.flac
     4:31.67       47962028 B   ---   --   ---xx   flac  0.5584  mac2016-08-19d01t04.flac
     4:18.46       45619436 B   ---   --   ---xx   flac  0.5885  mac2016-08-19d01t05.flac
     4:20.38       45953420 B   ---   --   ---xx   flac  0.5408  mac2016-08-19d01t06.flac
     5:16.60       55883564 B   ---   --   ---xx   flac  0.5596  mac2016-08-19d01t07.flac
     4:39.44       49319132 B   ---   --   ---xx   flac  0.6705  mac2016-08-19d01t08.flac
     4:17.07       45351308 B   ---   --   ---xx   flac  0.5643  mac2016-08-19d01t09.flac
     4:42.30       49815404 B   ---   --   ---xx   flac  0.5523  mac2016-08-19d01t10.flac
     3:50.74       40746092 B   ---   --   ---xx   flac  0.5174  mac2016-08-19d01t11.flac
     5:47.25       61269644 B   ---   --   ---xx   flac  0.5550  mac2016-08-19d01t12.flac
     0:42.69        7571132 B   ---   --   ---xx   flac  0.4436  mac2016-08-19d01t13.flac
     6:05.16       64423676 B   ---   --   ---xx   flac  0.5622  mac2016-08-19d01t14.flac
     3:44.07       39530108 B   ---   --   ---xx   flac  0.5429  mac2016-08-19d01t15.flac
     5:33.32       58816508 B   ---   --   ---xx   flac  0.5602  mac2016-08-19d01t16.flac
     5:03.39       53540972 B   ---   --   ---xx   flac  0.5583  mac2016-08-19d01t17.flac
     3:46.73       40038140 B   ---   --   ---xx   flac  0.6360  mac2016-08-19d01t18.flac
    76:20.04      807922200 B                            0.5682  (18 files)








 





More information about the bittorrent mailing list