[bittorrent] Reihanna Estrada Soulshine Pizza Factory Nashville, Tennessee 8/18/2016 (Schoeps CCM4V'S FOB)

Automated Mailer noreply-bt.e at etree.org
Fri Aug 19 05:27:35 UTC 2016


Band:           Other
Torrent Name:   Reihanna Estrada  Soulshine Pizza Factory Nashville, Tennessee 8/18/2016 (Schoeps CCM4V'S FOB)
Uploaded by:    zmanatl
DB Link:        
Details:        http://bt.etree.org/details.php?id=588291

Contact the seeder at http://db.etree.org/zmanatl

If the link to this show does not work, it was probably removed for
being non-trade-friendly.

Description / text file:
-------------------------
Reihanna Estrada 
Soulshine Pizza Factory
Nashville, Tennessee
8/18/2016 

Source: Schoeps CCM4V's>Lunatec V2>Benchmark AD2K>
Sound Devices 722 (24/44)
FOB/DFC/KFC/ZFC/AARP 6' From Stage, 6 1/2' High
DSP: Sound Devices 722>Sound Forge 10.0>CD Wave>flac(16)
ID3 Tagged In Foobar 2000
Recorded By: Z-Man
Seeded By: Z-Man

Disc I 

01 Introduction By Casey Jamerson
02 Cinderella
03 Puppeteer
04 Favorite City
05 Easy To Forget
06 To The Grave
07 Banter
08 Summer For Lovers
09 Jump Of The Train 

reihanna2016-08-18d01t01.flac:588dfcac7a442ad5a3bf3e9cfd71b5ed
reihanna2016-08-18d01t02.flac:424f63839eae4c260e47b83e78908f6e
reihanna2016-08-18d01t03.flac:1df7ada97da79694653e2cdc2641dbaa
reihanna2016-08-18d01t04.flac:8c93236a86f3520872a2991d2296aa01
reihanna2016-08-18d01t05.flac:a8495fefe61c90abfab8d74d2f76e9e8
reihanna2016-08-18d01t06.flac:f3d98d1485bb74ec5622b75b8d0f3056
reihanna2016-08-18d01t07.flac:c2a429c709391426995089dccd8dd248
reihanna2016-08-18d01t08.flac:36b41e30f3ad65c6169379cf2eaccc61
reihanna2016-08-18d01t09.flac:6b3236e8991a0cf749f006620c7342e5

 length     expanded size    cdr  WAVE problems  fmt   ratio  filename
     0:41.21        7281836 B   ---   --   ---xx   flac  0.4145  reihanna2016-08-18d01t01.flac
     3:19.44       35207132 B   ---   --   ---xx   flac  0.5254  reihanna2016-08-18d01t02.flac
     4:58.25       52626044 B   ---   --   ---xx   flac  0.4995  reihanna2016-08-18d01t03.flac
     5:43.24       60561692 B   ---   --   ---xx   flac  0.4909  reihanna2016-08-18d01t04.flac
     4:12.18       44495180 B   ---   --   ---xx   flac  0.4820  reihanna2016-08-18d01t05.flac
     3:10.51       33635996 B   ---   --   ---xx   flac  0.5204  reihanna2016-08-18d01t06.flac
     1:58.35       20897564 B   ---   --   ---xx   flac  0.3994  reihanna2016-08-18d01t07.flac
     5:31.34       58468412 B   ---   --   ---xx   flac  0.4707  reihanna2016-08-18d01t08.flac
     4:11.49       44391692 B   ---   --   ---xx   flac  0.4916  reihanna2016-08-18d01t09.flac
    33:47.01      357565548 B                            0.4871  (9 files)





 








More information about the bittorrent mailing list