[bittorrent] Chris Robinson Brotherhood Newton Theatre Newton, New Jersey 8/7/2016 (Schoeps CCM4V'S)

Automated Mailer noreply-bt.e at etree.org
Fri Aug 19 04:08:39 UTC 2016


Band:           Chris Robinson
Torrent Name:   Chris Robinson Brotherhood Newton Theatre Newton, New Jersey 8/7/2016 (Schoeps CCM4V'S)
Uploaded by:    zmanatl
DB Link:        
Details:        http://bt.etree.org/details.php?id=588289

Contact the seeder at http://db.etree.org/zmanatl

If the link to this show does not work, it was probably removed for
being non-trade-friendly.

Description / text file:
-------------------------
Chris Robinson Brotherhood
Newon Theatre
Newton, New Jersey
8/7/2016 

Source: Schoeps CCM4V's>Lunatec V2>Benchmark AD2K>
Sound Devices 722 (24/44)
BOB/DFC/KFC/ZFC/AARP Clamped To The Rail, Front Of Balcony
DSP: Sound Devices 722>Sound Forge 10.0>CD Wave>flac(16)
ID3 Tagged In Foobar 2000
Recorded By: Z-Man
Seeded By: Z-Man

Disc I 1st Set

01 Shake, Rattle, And Roll
02 Leave My Guitar Alone
03 Forever As The Moon
04 Alcatraz
05 100 Days Of Rain >
06 100 Tears From Now
07 Little Lizzie
08 Glory Halleluyah >
09 Nobody 

Disc II 2nd Set

01 New Cannon
02 Sunday Sound
03 I Want To
04 Ain't It Hard But Fair 
05 Shadow Cosmos

Disc III 2nd Set Con't

01 It's All Over Now, Baby Blue
02 Vibration And Light >
03 Narcissus Soaking
Encore:
04 Stop That Train I'm Leaving

chris2016-08-07d01t01.flac:d77e1a0ba9cf3c404638fc5e51f0f6b8
chris2016-08-07d01t02.flac:e8a512a3b9c72f20b7cb294dd0ef3c2c
chris2016-08-07d01t03.flac:e7d5e1a077fb2f43e28ee6818d0fbbf7
chris2016-08-07d01t04.flac:da5c413f9a5c22e7af7993c9d633c0d2
chris2016-08-07d01t05.flac:9d1c98e999af040262f9a375ff1a1dfb
chris2016-08-07d01t06.flac:2e5ce0da41a64ec4a98c9929accad632
chris2016-08-07d01t07.flac:5768132c659ef344f3537565ef863ed4
chris2016-08-07d01t08.flac:5c8340c26d361c6da080579997a35c11
chris2016-08-07d01t09.flac:a659e6a87c3efce13e227d8b2f1efac8
chris2016-08-07d02t01.flac:086e454befbb08893fc59d176d64227f
chris2016-08-07d02t02.flac:442a93ba28acb74c4099970c4ee9b26e
chris2016-08-07d02t03.flac:2e055a3b7aff8486878255068dc91841
chris2016-08-07d02t04.flac:f1f1cb28481f8bbcee937f1be8e0c897
chris2016-08-07d02t05.flac:0aaa4bad498225b55f99e5ed2196813f
chris2016-08-07d03t01.flac:fb0062df370fb15cca62a3343e3acf66
chris2016-08-07d03t02.flac:209442157ba936fa448163b069d27994
chris2016-08-07d03t03.flac:5c906965c299e0891833572b768b7293
chris2016-08-07d03t04.flac:e12b4df419e52827a5b29059de528ddd

  length     expanded size    cdr  WAVE problems  fmt   ratio  filename
     7:30.29       79448252 B   ---   --   ---xx   flac  0.5509  chris2016-08-07d01t01.flac
     7:02.61       74584316 B   ---   --   ---xx   flac  0.5207  chris2016-08-07d01t02.flac
     5:56.34       62878412 B   ---   --   ---xx   flac  0.5133  chris2016-08-07d01t03.flac
     5:15.51       55685996 B   ---   --   ---xx   flac  0.4822  chris2016-08-07d01t04.flac
     9:54.23      104835740 B   ---   --   ---xx   flac  0.4896  chris2016-08-07d01t05.flac
     4:10.46       44208236 B   ---   --   ---xx   flac  0.5003  chris2016-08-07d01t06.flac
     8:48.65       93292124 B   ---   --   ---xx   flac  0.5222  chris2016-08-07d01t07.flac
     7:32.06       79746956 B   ---   --   ---xx   flac  0.5069  chris2016-08-07d01t08.flac
    13:41.67      144982028 B   ---   --   ---xx   flac  0.5277  chris2016-08-07d01t09.flac
     8:55.37       94461068 B   ---   --   ---xx   flac  0.4919  chris2016-08-07d02t01.flac
    14:04.51      149001596 B   ---   --   ---xx   flac  0.4883  chris2016-08-07d02t02.flac
     7:27.27       78914348 B   ---   --   ---xx   flac  0.4922  chris2016-08-07d02t03.flac
     8:13.03       86972300 B   ---   --   ---xx   flac  0.5087  chris2016-08-07d02t04.flac
     6:07.66       64894076 B   ---   --   ---xx   flac  0.4716  chris2016-08-07d02t05.flac
     9:54.06      104795756 B   ---   --   ---xx   flac  0.5034  chris2016-08-07d03t01.flac
    15:19.37      162198668 B   ---   --   ---xx   flac  0.5210  chris2016-08-07d03t02.flac
     9:05.29       96206252 B   ---   --   ---xx   flac  0.5213  chris2016-08-07d03t03.flac
     7:54.25       83672444 B   ---   --   ---xx   flac  0.4447  chris2016-08-07d03t04.flac
   156:54.63     1660778568 B                            0.5048  (18 files)








 






More information about the bittorrent mailing list