[bittorrent] Wavetree Darwin's Burgers And Blues Marietta, Georgia 8/16/2016 (Schoeps CCM4V'S FOB)

Automated Mailer noreply-bt.e at etree.org
Thu Aug 18 16:07:24 UTC 2016


Band:           Other
Torrent Name:   Wavetree Darwin's Burgers And Blues Marietta, Georgia 8/16/2016  (Schoeps CCM4V'S FOB)
Uploaded by:    zmanatl
DB Link:        
Details:        http://bt.etree.org/details.php?id=588282

Contact the seeder at http://db.etree.org/zmanatl

If the link to this show does not work, it was probably removed for
being non-trade-friendly.

Description / text file:
-------------------------
Wavetree
Darwi's Burgers And Blues
Marietta, Georgia
8/16/2016 

Source: Schoeps CCM4V's>Lunatec V2>Benchmark AD2K>
Sound Devices 722 (24/44)
FOB/DFC/KFC/ZFC/AARP Stagelip, 6 1/2' High
DSP: Sound Devices 722>Sound Forge 10.0>CD Wave>flac(16)
ID3 Tagged In Foobar 2000
Recorded By: Z-Man
Seeded By: Z-Man

Disc I 

01 Greeting By George
02 ?
03 Ain't No Midnight Train
04 The Letter
05 Thngs I Should Have Said  
06 Town Without Pity
07 Couldn't Stand The Weather
08 Ridin' Down To Jackson
09 Business As Usual
10 Roll Over DB
11 Magnolia
12 Gonna Be A Cold Day In Hell

wavetree2016-08-16d01t01.flac:099604fc52665ddf0c8dd54c83e4a54f
wavetree2016-08-16d01t02.flac:113697f901744e403d35f5da4599c25d
wavetree2016-08-16d01t03.flac:a3046a6aaca5f14990f05cae49a2cc12
wavetree2016-08-16d01t04.flac:aa9c71350e734b23aa2e932242461ac4
wavetree2016-08-16d01t05.flac:dd1b210e72efbd27d4e6f4cb872bf60b
wavetree2016-08-16d01t06.flac:9fc17211fd998979b8e04932fd8c2019
wavetree2016-08-16d01t07.flac:064124108478602c777ffede4f279c7c
wavetree2016-08-16d01t08.flac:844a6fe0b86279e6d36320f699c67ad0
wavetree2016-08-16d01t09.flac:9b93f0b69b490d2c51603c1a4c5932f8
wavetree2016-08-16d01t10.flac:fdd8a69991b05e46d87fa7decceb1541
wavetree2016-08-16d01t11.flac:9708db66152b3b54cd7e9f8b01f99b71
wavetree2016-08-16d01t12.flac:b0096bd665494bad862e567035b7c250

 length     expanded size    cdr  WAVE problems  fmt   ratio  filename
     0:49.44        8747132 B   ---   --   ---xx   flac  0.3260  wavetree2016-08-16d01t01.flac
     6:37.29       70099052 B   ---   --   ---xx   flac  0.5619  wavetree2016-08-16d01t02.flac
     8:02.07       85041308 B   ---   --   ---xx   flac  0.5496  wavetree2016-08-16d01t03.flac
     4:14.20       44852684 B   ---   --   ---xx   flac  0.5720  wavetree2016-08-16d01t04.flac
     8:13.58       87101660 B   ---   --   ---xx   flac  0.4328  wavetree2016-08-16d01t05.flac
     3:49.41       40492076 B   ---   --   ---xx   flac  0.4926  wavetree2016-08-16d01t06.flac
     4:51.18       51374780 B   ---   --   ---xx   flac  0.5217  wavetree2016-08-16d01t07.flac
     5:28.46       57967436 B   ---   --   ---xx   flac  0.5068  wavetree2016-08-16d01t08.flac
     5:49.11       61589516 B   ---   --   ---xx   flac  0.5484  wavetree2016-08-16d01t09.flac
     5:34.25       58976444 B   ---   --   ---xx   flac  0.5092  wavetree2016-08-16d01t10.flac
     7:09.07       75692108 B   ---   --   ---xx   flac  0.4738  wavetree2016-08-16d01t11.flac
     6:00.11       63529916 B   ---   --   ---xx   flac  0.5641  wavetree2016-08-16d01t12.flac
    66:39.17      705464112 B                            0.5159  (12 files)










 



More information about the bittorrent mailing list