[bittorrent] Jacks River Band Madlife Stage And Studio Woodstock, Georgia 8/17/2016 (Schoeps CCM4V'S FOB)

Automated Mailer noreply-bt.e at etree.org
Thu Aug 18 11:02:42 UTC 2016


Band:           Other
Torrent Name:   Jacks River Band Madlife Stage And Studio Woodstock, Georgia  8/17/2016 (Schoeps CCM4V'S FOB)
Uploaded by:    zmanatl
DB Link:        
Details:        http://bt.etree.org/details.php?id=588276

Contact the seeder at http://db.etree.org/zmanatl

If the link to this show does not work, it was probably removed for
being non-trade-friendly.

Description / text file:
-------------------------
Jacks River Band
Madlife Stage And Studio
Woodstock, Georgia
8/17/2016 

Source: Schoeps CCM4V's>Lunatec V2>Benchmark AD2K>
Sound Devices 722 (24/44)
AB/DFC/KFC/ZFC/AARP Clamped To The Rail, Front Of Balcony
DSP: Sound Devices 722>Sound Forge 10.0>CD Wave>flac(16)
ID3 Tagged In Foobar 2000
Recorded By: Z-Man
Seeded By: Z-Man

Disc I 1st Set

01 Introduction
02 Sneakin' Sally Through The Alley
03 Lagrange >
04 Higher Ground
05 Bleedin' Blues
06 Love Me Two Times
07 One Way Out
08 Fire On The Mountain 
09 Soul Free

Disc II 2nd Set

01 Good Times, Bad Times 
02 Hot 'Lanta >
03 ?
04 Blue Sky 
05 Red House 
06 Whippin' Post 
07 Superstition
08 Magic Carpet Ride >
09 Drum Solo >
10 Bass And Drums >
11 Magic Carpet Ride

jacks2016-08-17d01t01.flac:b45d1ea4f0496a29889f4d18605aaccf
jacks2016-08-17d01t02.flac:082f2dc68499424a13c4549fc8ceb151
jacks2016-08-17d01t03.flac:ced8bc1852f5c35c818e46e5a7676e31
jacks2016-08-17d01t04.flac:e075177048dcdb85ca3795d4007cc5c0
jacks2016-08-17d01t05.flac:a48735b5d50de44e8bee886b696c79e9
jacks2016-08-17d01t06.flac:224ed9eb10f9e33974db46e986e37df0
jacks2016-08-17d01t07.flac:5c09fc3563469aee02e70256f1792413
jacks2016-08-17d01t08.flac:979679e2700f17b1c4f0fb4583e865de
jacks2016-08-17d01t09.flac:f914b55e0feff6725bf36080ceed67fa
jacks2016-08-17d02t01.flac:20b594874efd71bb59f38bf2e8e22ae5
jacks2016-08-17d02t02.flac:f13db835ff2dc337cd15d954f8e60690
jacks2016-08-17d02t03.flac:78bea653d86778377ae79dfee17cc503
jacks2016-08-17d02t04.flac:706a0603b1f6bc9ffb007b628746c72a
jacks2016-08-17d02t05.flac:0c75826bde0d8e1dd6ae6b78a2cbfed2
jacks2016-08-17d02t06.flac:1c3f8262dc731842b0e4a31ead1d927c
jacks2016-08-17d02t07.flac:fa57e258a391d20b9db32d696092eb17
jacks2016-08-17d02t08.flac:b4197e3baf0b3ff04445bc3f70120deb
jacks2016-08-17d02t09.flac:fe0569a857f2fe447cde4959828667c5
jacks2016-08-17d02t10.flac:5d9b8cb606c105d7f21a74c2e3df1725
jacks2016-08-17d02t11.flac:48323d3fa346c4a710370a8ad55baaa3

 length     expanded size    cdr  WAVE problems  fmt   ratio  filename
     0:23.24        4113692 B   ---   --   ---xx   flac  0.3488  jacks2016-08-17d01t01.flac
     4:35.36       48594716 B   ---   --   ---xx   flac  0.6082  jacks2016-08-17d01t02.flac
     5:01.46       53204636 B   ---   --   ---xx   flac  0.5594  jacks2016-08-17d01t03.flac
     3:58.60       42124364 B   ---   --   ---xx   flac  0.6164  jacks2016-08-17d01t04.flac
     4:48.11       50829116 B   ---   --   ---xx   flac  0.5518  jacks2016-08-17d01t05.flac
     4:33.69       48319532 B   ---   --   ---xx   flac  0.5046  jacks2016-08-17d01t06.flac
     5:27.19       57727532 B   ---   --   ---xx   flac  0.5447  jacks2016-08-17d01t07.flac
    15:20.20      162335084 B   ---   --   ---xx   flac  0.5190  jacks2016-08-17d01t08.flac
     7:54.66       83768876 B   ---   --   ---xx   flac  0.5663  jacks2016-08-17d01t09.flac
     3:31.31       37293356 B   ---   --   ---xx   flac  0.5583  jacks2016-08-17d02t01.flac
     4:15.21       45031436 B   ---   --   ---xx   flac  0.5440  jacks2016-08-17d02t02.flac
     9:49.25      103958444 B   ---   --   ---xx   flac  0.5522  jacks2016-08-17d02t03.flac
    10:45.06      113792156 B   ---   --   ---xx   flac  0.5581  jacks2016-08-17d02t04.flac
     7:43.28       81739100 B   ---   --   ---xx   flac  0.4957  jacks2016-08-17d02t05.flac
    12:36.00      133358444 B   ---   --   ---xx   flac  0.5507  jacks2016-08-17d02t06.flac
     5:26.05       57518204 B   ---   --   ---xx   flac  0.6025  jacks2016-08-17d02t07.flac
     4:25.27       46809548 B   ---   --   ---xx   flac  0.6108  jacks2016-08-17d02t08.flac
     0:31.25        5527244 B   ---   --   ---xx   flac  0.6172  jacks2016-08-17d02t09.flac
     3:20.05       35291804 B   ---   --   ---xx   flac  0.5500  jacks2016-08-17d02t10.flac
     2:49.37       29898668 B   ---   --   ---xx   flac  0.5608  jacks2016-08-17d02t11.flac
   117:16.36     1241235952 B                            0.5521  (20 files)












More information about the bittorrent mailing list