[bittorrent] gd1988-12-31.136731.pre-fm.GEMS.flac16

Automated Mailer noreply-bt.e at etree.org
Thu Aug 18 06:50:52 UTC 2016


Band:           Grateful Dead
Torrent Name:   gd1988-12-31.136731.pre-fm.GEMS.flac16
Uploaded by:    greendude
DB Link:        
Details:        http://bt.etree.org/details.php?id=588275

Contact the seeder at http://db.etree.org/greendude

If the link to this show does not work, it was probably removed for
being non-trade-friendly.

Description / text file:
-------------------------
Grateful Dead
Saturday December 31, 1988
Oakland, CA
Oakland Coliseum Arena

Healy Matrix pre-fm -> Beta

Broadcast on KFOG

Sony L-750ESX-HFB Dynamicron EXCELLENT SUPER HIFI VIDEO CASSETTE-> Sony SLO-1800 STEREO VIDEOCASSETTE RECORDER->
Sony PCM-601ESD DIGITAL AUDIO PROCESSOR-> SP/DIF-> Mytek Stereo 192 Sample Rate Converter-> Upsampled to 44.1kHz/24bit->
SP/DIF-> RME FIREFACE 800-> FireWire 400-> Lenovo K450e Desktop PC-> WaveLab 6.11

This recording was gratefully supplied by PO and Stucco TINA Holmes.
Thanks to spamjam for the equipment generosity.

Audition CC 2015 Mastering by Jason Chastain
Critical Listening Assistance and tracking with Audacity-> flac level 8->tagged with Tag&Rename and checksums with TLH by Norm
16 bit 44.1kHz a project **GEMS** August 17, 2016

Set 1
01.radio intro
02.Let The Good Times Roll
03.Franklin's Tower
04.Wang Dang Doodle*
05.West L.A. Fadeaway* 
06.tuning
07.When I Paint My Masterpiece
08.tuning
09.Cold Rain & Snow
10.tuning
11.Cassidy >
12.Don't Ease Me In

Set 2
13.NYE Countdown >
14.Sugar Magnolia* >
15.Touch Of Grey* >
16.Man Smart, Woman Smarter* >
17.Terrapin Station >
18.Drums** >
19.Space >
20.The Wheel >
21.Gimme Some Lovin' >
22.All Along The Watchtower >
23.Morning Dew >
24.Sunshine Daydream

Encore
25.tuning
26.Wharf Rat >
27.Goin' Down The Road Feeling Bad* >
28.One More Saturday Night*
29.radio outro
30.UN Rainforest press conference\ (1988-09-14)

* with Clarence Clemons
** Baba Olatunji, Sikiru Adepoju and Kitaro

SHNID 03189, 085966 and 97786 used for a few small patches

originally shared at www.shnflac.net

    length     expanded size    cdr  WAVE problems  fmt   ratio  filename
     0:58.21       10280636 B   ---   --   ---xx   flac  0.5234  gd88-12-31s1t01.flac
     5:18.52       56217548 B   ---   --   ---xx   flac  0.5586  gd88-12-31s1t02.flac
     8:51.57       93802508 B   ---   --   ---xx   flac  0.5670  gd88-12-31s1t03.flac
     7:07.70       75487484 B   ---   --   ---xx   flac  0.5807  gd88-12-31s1t04.flac
     7:34.31       80158556 B   ---   --   ---xx   flac  0.5700  gd88-12-31s1t05.flac
     2:00.57       21302108 B   ---   --   ---xx   flac  0.3681  gd88-12-31s1t06.flac
     5:32.17       58604828 B   ---   --   ---xx   flac  0.5726  gd88-12-31s1t07.flac
     0:54.54        9652652 B   ---   --   ---xx   flac  0.3716  gd88-12-31s1t08.flac
     6:06.38       64651820 B   ---   --   ---xx   flac  0.5723  gd88-12-31s1t09.flac
     1:08.32       12070508 B   ---   --   ---xx   flac  0.3683  gd88-12-31s1t10.flac
     6:56.09       73403612 B   ---   --   ---xx   flac  0.5621  gd88-12-31s1t11.flac
     3:43.72       39506588 B   ---   --   ---xx   flac  0.5829  gd88-12-31s1t12.flac
     4:29.60       47592764 B   ---   --   ---xx   flac  0.5403  gd88-12-31s2t01.flac
     5:59.07       63344108 B   ---   --   ---xx   flac  0.6054  gd88-12-31s2t02.flac
     6:23.61       67704716 B   ---   --   ---xx   flac  0.6280  gd88-12-31s2t03.flac
     8:45.27       92673548 B   ---   --   ---xx   flac  0.6285  gd88-12-31s2t04.flac
    12:07.37      128329868 B   ---   --   ---xx   flac  0.5540  gd88-12-31s2t05.flac
    17:28.66      185022476 B   ---   --   ---xx   flac  0.4912  gd88-12-31s2t06.flac
    10:06.16      106936076 B   ---   --   ---xx   flac  0.4063  gd88-12-31s2t07.flac
     5:44.10       60705164 B   ---   --   ---xx   flac  0.5217  gd88-12-31s2t08.flac
     5:00.25       52978844 B   ---   --   ---xx   flac  0.6110  gd88-12-31s2t09.flac
     5:14.39       55481372 B   ---   --   ---xx   flac  0.6039  gd88-12-31s2t10.flac
    11:02.60      116917964 B   ---   --   ---xx   flac  0.4972  gd88-12-31s2t11.flac
     6:12.25       65679644 B   ---   --   ---xx   flac  0.5973  gd88-12-31s2t12.flac
     1:12.13       12731420 B   ---   --   ---xx   flac  0.4180  gd88-12-31s2t13.flac
     8:25.28       89147900 B   ---   --   ---xx   flac  0.5384  gd88-12-31s2t14.flac
     6:03.64       64183772 B   ---   --   ---xx   flac  0.5901  gd88-12-31s2t15.flac
     5:15.59       55704812 B   ---   --   ---xx   flac  0.6258  gd88-12-31s2t16.flac
     3:35.06       37940156 B   ---   --   ---xx   flac  0.4364  gd88-12-31s2t17.flac
     6:28.55       68572604 B   ---   --   ---xx   flac  0.4883  gd88-12-31s2t18.flac
   185:49.43     1966786056 B                            0.5448  (30 files)





More information about the bittorrent mailing list