[bittorrent] String Cheese Incident King's Theatre Brooklyn, New York 8/14/2016 (Schoeps CCM4V'S FOB)

Automated Mailer noreply-bt.e at etree.org
Thu Aug 18 05:21:47 UTC 2016


Band:           String Cheese Incident
Torrent Name:   String Cheese Incident King's Theatre Brooklyn, New York  8/14/2016 (Schoeps CCM4V'S FOB)
Uploaded by:    zmanatl
DB Link:        
Details:        http://bt.etree.org/details.php?id=588274

Contact the seeder at http://db.etree.org/zmanatl

If the link to this show does not work, it was probably removed for
being non-trade-friendly.

Description / text file:
-------------------------
String Cheese Incident
King's Theatre
Brooklyn, New York 
8/14/2016 

Source: Schoeps CCM4V's>Lunatec V2>Benchmark AD2K>
Sound Devices 722 (24/44)
FOB/DFC/KFC/ZFC/AARP Center Section, Row II, Between Seats 112 & 113, 6 1/2' High
DSP: Sound Devices 722>Sound Forge 10.0>CD Wave>flac(16)
ID3 Tagged In Foobar 2000
Recorded By: Z-Man
Seeded By: Z-Man

Disc I 1st Set

01 Greeting
02 Valley Of The Jig
03 Black And White >
04 Turn On Your Lovelight Jam >
05 Yo Se
06 Farther
07 Sweet Spot

Disc II 1st Set Con't

01 Stop Drop Roll
02 Round The Wheel
2nd Set:
03 Desert Dawn
04 Get Tight >
05 Rain

Disc III 2nd Set Con't

01 *Hot 'Lanta >
02 Drum Solo >
03 *Hot 'Lanta >
04 *On The Road >
05 #Southbound
06 Way Back Home  >
07 Whiskey Before Breakfast >
08 Kashmir
Encore:
09 @Honky Tonk eroes 
10 @Hobo Song 
11 Rosie

* With Scott Sharrard On Guitar
# With Scott Sharrard On Guitar And Vocals
@ Acoustic Style

Thank You Justin Marinoff For The Ducat!
Thanks To Our Sound Engineer Dros, For Making It Sound Great! 

sci2016-08-14d01t01.flac:446473bd8967a916df093438c2d8aac3
sci2016-08-14d01t02.flac:e33830fe659960f383db3aa8f299cb45
sci2016-08-14d01t03.flac:290065e2835d2e0857750b86e9720e13
sci2016-08-14d01t04.flac:be90cd12b6f6823c1c7550a55f8861a5
sci2016-08-14d01t05.flac:94f08642a7e6cf2158a12ce68afa9084
sci2016-08-14d01t06.flac:5a9737f64279d6303a10785683e6dd1c
sci2016-08-14d01t07.flac:4d172d016315c1b0f6e8fe2b65b75b4d
sci2016-08-14d02t01.flac:9af6c5543d4c7baae3e304c7ddee5af1
sci2016-08-14d02t02.flac:04f4f99d5837e37b6f4b0b897e7bf886
sci2016-08-14d02t03.flac:b33ee0b30afc5c0e86a231201ef93cd1
sci2016-08-14d02t04.flac:c93324e35c4c791946379824819b0249
sci2016-08-14d02t05.flac:e7ab574892b6209bfc2baac3a940a43c
sci2016-08-14d03t01.flac:6b2135acd18aad9bdfb59bba7123cf53
sci2016-08-14d03t02.flac:258ef02ab67cdef16ee1b0d79e65f4cd
sci2016-08-14d03t03.flac:82c4a7ee9c0ad59c53a3edc141de319b
sci2016-08-14d03t04.flac:65182635b2cf830faab159d0f5220d20
sci2016-08-14d03t05.flac:7e111ae64e67ea4862e40e409a306e22
sci2016-08-14d03t06.flac:b70582fccfa1460120381677cfe3cacc
sci2016-08-14d03t07.flac:015deca7a32172f1227fc3bc23245ab3
sci2016-08-14d03t08.flac:8efbc6a745b126fbca6c586181612de6
sci2016-08-14d03t09.flac:92c4fd65192c4e29a5f6b02939a4a735
sci2016-08-14d03t10.flac:232879b7535bb257e8d1e37589330011
sci2016-08-14d03t11.flac:22e4059966018305b717349454089165

length     expanded size    cdr  WAVE problems  fmt   ratio  filename
     0:37.23        6580940 B   ---   --   ---xx   flac  0.4026  sci2016-08-14d01t01.flac
    12:44.27      134833148 B   ---   --   ---xx   flac  0.5185  sci2016-08-14d01t02.flac
     9:40.23      102366140 B   ---   --   ---xx   flac  0.4880  sci2016-08-14d01t03.flac
     2:49.18       29853980 B   ---   --   ---xx   flac  0.5257  sci2016-08-14d01t04.flac
     9:14.33       97803260 B   ---   --   ---xx   flac  0.4516  sci2016-08-14d01t05.flac
     7:35.63       80410220 B   ---   --   ---xx   flac  0.4512  sci2016-08-14d01t06.flac
     9:55.64      105108572 B   ---   --   ---xx   flac  0.5213  sci2016-08-14d01t07.flac
    14:20.09      151725212 B   ---   --   ---xx   flac  0.4588  sci2016-08-14d02t01.flac
    17:33.07      185765708 B   ---   --   ---xx   flac  0.4743  sci2016-08-14d02t02.flac
    16:40.14      176432972 B   ---   --   ---xx   flac  0.4767  sci2016-08-14d02t03.flac
     5:14.55       55519004 B   ---   --   ---xx   flac  0.4581  sci2016-08-14d02t04.flac
     9:35.47      101540588 B   ---   --   ---xx   flac  0.4722  sci2016-08-14d02t05.flac
     5:12.05       55048604 B   ---   --   ---xx   flac  0.4499  sci2016-08-14d03t01.flac
     1:49.48       19340540 B   ---   --   ---xx   flac  0.4329  sci2016-08-14d03t02.flac
     2:42.41       28673276 B   ---   --   ---xx   flac  0.4539  sci2016-08-14d03t03.flac
     9:52.63      104577020 B   ---   --   ---xx   flac  0.4823  sci2016-08-14d03t04.flac
     8:16.03       87501500 B   ---   --   ---xx   flac  0.4755  sci2016-08-14d03t05.flac
     9:43.48      102954140 B   ---   --   ---xx   flac  0.4473  sci2016-08-14d03t06.flac
     2:50.69       30150332 B   ---   --   ---xx   flac  0.4701  sci2016-08-14d03t07.flac
     7:24.34       78401612 B   ---   --   ---xx   flac  0.5137  sci2016-08-14d03t08.flac
     5:00.23       52974140 B   ---   --   ---xx   flac  0.3921  sci2016-08-14d03t09.flac
     5:21.21       56673836 B   ---   --   ---xx   flac  0.4167  sci2016-08-14d03t10.flac
     9:10.30       97090604 B   ---   --   ---xx   flac  0.5121  sci2016-08-14d03t11.flac
   183:25.18     1941325348 B                            0.4746  (23 files)















 
















More information about the bittorrent mailing list