[bittorrent] Soul Connection Dinosaur BBQ Syracuse, New York 8/5/2016 (Schoeps CCM4V'S FOB)

Automated Mailer noreply-bt.e at etree.org
Wed Aug 17 21:17:23 UTC 2016


Band:           Other
Torrent Name:   Soul Connection Dinosaur BBQ Syracuse, New York  8/5/2016 (Schoeps CCM4V'S FOB)
Uploaded by:    zmanatl
DB Link:        
Details:        http://bt.etree.org/details.php?id=588261

Contact the seeder at http://db.etree.org/zmanatl

If the link to this show does not work, it was probably removed for
being non-trade-friendly.

Description / text file:
-------------------------
Soul Connection
Dinosaur BBQ
Syracuse, New York 
8/5/2016 

Source: Schoeps CCM4V's>Lunatec V2>Benchmark AD2K>
Sound Devices 722 (24/44)
FOB/DFC/KFC/ZFC/AARP 9' From Stage, 6 1/2' High
DSP: Sound Devices 722>Sound Forge 10.0>CD Wave>flac(16)
ID3 Tagged In Foobar 2000
Recorded By: Z-Man
Seeded By: Z-Man

Disc I 

01 Todd Fitzsimmons Banter
02 Green Onions
03 Change My Mind
04 Unchain My Heart
05 How I Wish It Would Rain
06 It's A Real Mother For Ya
07 Ain't Too Proud To Beg
08 It Keeps You Running
09 6345789

Disc II 

01 On Broadway
02 It's Too Late
03 ?
04 Banter/Band Introductions
05 She Knocks Me Off My Feet
06 Groove Me
07 Brick House
08 The Thrill Is Gone
09 Kansas City 

Todd Fitzsimmons - Guitar And Vocals
Jimmy - Bass
David Shaw - Vocals
Joanne - Vocals, Percussion, And Harmonica
Carter McCarther - Drums And Vocals
Jimmy - Keyboards

***This was the bands 1st Public appearance! They have played a couple of private
functions only at this time.

soul2016-08-05d01t01.flac:c55d8e36768a7a74d95df24a583518cf
soul2016-08-05d01t02.flac:ab644e0de7eb840a09cec8d1702879c1
soul2016-08-05d01t03.flac:edb339cfdd3c889df6ba2d0e322cde4b
soul2016-08-05d01t04.flac:89262a195087c0e05616f58465137353
soul2016-08-05d01t05.flac:a221d7e6887e774893ca89338037418e
soul2016-08-05d01t06.flac:b85058c78ef553a5e8e7944525bdbe13
soul2016-08-05d01t07.flac:861a738f5a7bd412495bc504ec6d66ec
soul2016-08-05d01t08.flac:8a2567759331717e7ff3931617741bb9
soul2016-08-05d01t09.flac:f23154e65fa5976bd2072a43b8415f4c
soul2016-08-05d02t01.flac:cdb7cd42d449d4d7f041e5c190b9dd5a
soul2016-08-05d02t02.flac:64ccf6f6c3930faab4f91e49bd7ea51a
soul2016-08-05d02t03.flac:1a5df39d1dd8cb7af57636714de7847b
soul2016-08-05d02t04.flac:49a2d2b7f8b9d81e4ae97d729b1c5f28
soul2016-08-05d02t05.flac:84e9ab078a343aebb63cefdf4d7749db
soul2016-08-05d02t06.flac:45ff858ac4c1b637f9ee37dc59f5f72f
soul2016-08-05d02t07.flac:634dd9b61bd6d5c7b0b7bd497cfb5514
soul2016-08-05d02t08.flac:1618ff628a592495ff98229e8208cb74
soul2016-08-05d02t09.flac:715e14aaea31b27891f61bb21ff49452

 length     expanded size    cdr  WAVE problems  fmt   ratio  filename
     1:05.46       11574236 B   ---   --   ---xx   flac  0.2917  soul2016-08-05d01t01.flac
     5:46.28       61100300 B   ---   --   ---xx   flac  0.4492  soul2016-08-05d01t02.flac
     5:35.62       59239868 B   ---   --   ---xx   flac  0.4965  soul2016-08-05d01t03.flac
     3:07.57       33120908 B   ---   --   ---xx   flac  0.5641  soul2016-08-05d01t04.flac
     4:45.35       50356364 B   ---   --   ---xx   flac  0.4677  soul2016-08-05d01t05.flac
     6:30.44       68899532 B   ---   --   ---xx   flac  0.5155  soul2016-08-05d01t06.flac
     3:11.60       33833564 B   ---   --   ---xx   flac  0.5232  soul2016-08-05d01t07.flac
     5:33.70       58905884 B   ---   --   ---xx   flac  0.4430  soul2016-08-05d01t08.flac
     5:13.72       55382588 B   ---   --   ---xx   flac  0.4532  soul2016-08-05d01t09.flac
     6:44.21       71315036 B   ---   --   ---xx   flac  0.4905  soul2016-08-05d02t01.flac
     5:18.67       56252828 B   ---   --   ---xx   flac  0.4017  soul2016-08-05d02t02.flac
     5:34.41       59014076 B   ---   --   ---xx   flac  0.5003  soul2016-08-05d02t03.flac
     1:03.35       11195564 B   ---   --   ---xx   flac  0.3001  soul2016-08-05d02t04.flac
     3:51.61       40891916 B   ---   --   ---xx   flac  0.4793  soul2016-08-05d02t05.flac
     4:35.36       48594716 B   ---   --   ---xx   flac  0.4727  soul2016-08-05d02t06.flac
     7:40.20       81191084 B   ---   --   ---xx   flac  0.4882  soul2016-08-05d02t07.flac
     9:07.34       96570812 B   ---   --   ---xx   flac  0.4431  soul2016-08-05d02t08.flac
     5:19.64       56422172 B   ---   --   ---xx   flac  0.4550  soul2016-08-05d02t09.flac
    90:07.28      953861448 B                            0.4697  (18 files)










More information about the bittorrent mailing list