[bittorrent] gd1980-12-14.136726.mtx.dusborne.flac16

Automated Mailer noreply-bt.e at etree.org
Wed Aug 17 20:21:29 UTC 2016


Band:           Grateful Dead
Torrent Name:   gd1980-12-14.136726.mtx.dusborne.flac16
Uploaded by:    greendude
DB Link:        
Details:        http://bt.etree.org/details.php?id=588259

Contact the seeder at http://db.etree.org/greendude

If the link to this show does not work, it was probably removed for
being non-trade-friendly.

Description / text file:
-------------------------
Grateful Dead
December 14, 1980
Long Beach Arena  
Long Beach, CA

3 Source Matrix

Soundboard (Shnid:108813)
------------------------------------------------------------------------------------
gd1980-12-14.all.sbd.minches.108813.flac1644

{Unknown generation cassette from sound board master}
Now confirmed MSC > C

Transfer and FLAC encoding by David Minches:
Cassette played back on Nakamichi Dragon> Korg MR-1000(DSF [1-bit 5.6448 MHz 
Stereo]) Korg AudioGate > WAV [24/96] > Adobe Audition 3.0> Ozone 4.0> FLAC 


Speed/pitch Correction by Joe B. Jones.

Missing sections were patched with SHNID 89058.

Patch Info: Nakamichi 300 -> Cassette Master (Sony D5M/Maxell UDXL-II90)

Thanks to Michael Parrish for the sound board recording.

Audience (Shnid:89058)
------------------------------------------------------------------------------------
gd1980-12-14.nak300.walker-scotton.miller.89058.sbeok.flac16

Recording Info:
Nakamichi 300 -> Cassette Master (Sony D5M/Maxell UDXL-II90)

Transfer Info:
Cassette Master (Nakamichi DR-1) -> Sound Devices 744T (24bit/96k) ->
Samplitude Professional v9.12 -> FLAC/16
(3 Discs Audio / 2 Discs FLAC)

All Transfers and Mastering By Charlie Miller
charliemiller87 at earthlink.net
December 13, 2007

Patch Info:
(FOB) Nakamichi 700 -> Cassette Master -> Dat -> Samplitude -> WAV supplies:
Big River (5:30 - 5:38)

Notes:
-- All disc changes are seamless
-- Rooster and Around And Around with Matt kelly
-- Drums/Space with Airto Moriera and Flora Purim
-- Recorded By Joani Walker near the sbd area
-- Thanks to Joani Walker and Paul Scotton for the tapes

Audience (Shnid:124583)
------------------------------------------------------------------------------------
gd1980-12-14.124583.aud.goldshine.sennheiser-mkh406.flac16

Recorded by: Ron Goldshine and John Musgrave with help from Mark the B-Man and Mike Martin

Recorded from the 15th row dead center on the floor with the microphones about 10 feet apart


Source:
2 Sennheiser MKH 406 TUD microphones > Sony D5M (w/ Dolby B, Bias @ 70us on 3 TDK MA C-90 tapes)

My Copy of masters:
Sony D5M (w/ Dolby, Bias @ 70us) > Akaii GX-570 D2 (w/ Dolby B, Bias @ 70us on 2 TDK SA C-90 tapes)

Transfer:
Nakamichi CR-7A (azimuth aligned to tape, Dolby B, Bias @ 70us) > Korg MN-2000S 1 Bit DFF @ 2.822 MHz >
AudioGate (convert to 24-96) > Audacity (clean up) > 
AudioGate (convert to 16-44) > CD wav > Flac (Level 8) > Stamp ID3 Tag editor


Clean Up notes:
Tape paused between songs
Post-production editing performed to smooth out the transitions 
Removed stray pops and distracting claps although some may remain.
Spliced tape flips.

For historical reference only and not intended for resale or any commercial use.
Enjoy
-M-

Flying M Productions - (May 2013) - This source is new to circulation (never shared previously from this recorder)


Fan Recordings For Collectors
Trade Freely But Please Do Not Sell
----------------------------------------------------------------------------------------------------------
---Thank you David Minches for your work on the SBD.
---Thank you Michael Parrish for the SBD recording.
---Thank you Joe B. Jones for the SBD pitch correction.
---Thank you Charlie Miller for your work on the AUD.
---Thank you Joani Walker,Ron Goldshine, John Musgrave, Mark the B-Man and Mike Martin for recoreding the show.
---Thank you Joani Walker and Paul Scotton for the AUD tapes.
---Thank you Flying M Productions for yur work on the AUD.(Shnid:124551)
---Thank you Germain for your advice, encouragement, guidance and seeding.

Matrix by dusborne

08-15-2016
------------------------------------------------------------------------------------------------------------
Set 1

101 - gd80-12-14s1t01 - Tuning
102 - gd80-12-14s1t02 - Bertha ->
103 - gd80-12-14s1t03 - Greatest Story Ever Told
104 - gd80-12-14s1t04 - Althea ->
105 - gd80-12-14s1t05 - Little Red Rooster
106 - gd80-12-14s1t06 - Loser
107 - gd80-12-14s1t07 - Me & My Uncle ->
108 - gd80-12-14s1t08 - Big River
109 - gd80-12-14s1t09 - Bird Song
110 - gd80-12-14s1t10 - Passenger
111 - gd80-12-14s1t11 - Candyman ->
112 - gd80-12-14s1t12 - Looks Like Rain ->
113 - gd80-12-14s1t13 - Don't Ease Me In

Set 2

201 - gd80-12-14s2t01 - Tuning
202 - gd80-12-14s2t02 - Cold Rain & Snow ->
203 - gd80-12-14s2t03 - Samson & Delilah
204 - gd80-12-14s2t04 - It Must Have Been the Roses
205 - gd80-12-14s2t05 - Estimated Prophet ->
206 - gd80-12-14s2t06 - The Wheel ->
207 - gd80-12-14s2t07 - Drums ->
208 - gd80-12-14s2t08 - Space ->
209 - gd80-12-14s2t09 - The Other One ->
210 - gd80-12-14s2t10 - Stella Blue ->
211 - gd80-12-14s2t11 - Around & Around ->
212 - gd80-12-14s2t12 - Good Lovin'

Encore
213 - gd80-12-14s2t13 - Brokedown Palace
----------------------------------------------------------------------------------------------------------
Tagging notes:
Show information is embedded within the headerof each flac file. 
It will display on any player capable of directly playing flac files. 
If converted to wav during processing, all tags will be stripped, 
however audio data will remain unaffected. 
If you must transcode to a lossy format, do so directly Flac > Lossy.
Use ffp to validate audio integrity.
Md5 values will change if tagging is altered.

Dave Usborne 08-15-2016
------------------------------------------------------------------------------------------------------------
length     expanded size    cdr  WAVE problems  fmt   ratio  filename
     1:14.37       13140668 B   ---   --   ---xx   flac  0.4817  gd80-12-14s1t01.flac
     6:51.00       72500444 B   ---   --   ---xx   flac  0.6211  gd80-12-14s1t02.flac
     5:52.03       62099900 B   ---   --   ---xx   flac  0.5678  gd80-12-14s1t03.flac
     8:12.05       86800604 B   ---   --   ---xx   flac  0.5944  gd80-12-14s1t04.flac
    12:37.55      133664204 B   ---   --   ---xx   flac  0.5861  gd80-12-14s1t05.flac
     7:55.17       83830028 B   ---   --   ---xx   flac  0.5905  gd80-12-14s1t06.flac
     3:05.02       32638748 B   ---   --   ---xx   flac  0.6239  gd80-12-14s1t07.flac
     8:56.63       94698620 B   ---   --   ---xx   flac  0.5735  gd80-12-14s1t08.flac
    11:24.70      120822284 B   ---   --   ---xx   flac  0.5972  gd80-12-14s1t09.flac
     7:02.10       74464364 B   ---   --   ---xx   flac  0.5774  gd80-12-14s1t10.flac
     7:17.04       77096252 B   ---   --   ---xx   flac  0.5849  gd80-12-14s1t11.flac
     8:14.05       87153404 B   ---   --   ---xx   flac  0.6145  gd80-12-14s1t12.flac
     3:41.45       39090284 B   ---   --   ---xx   flac  0.6605  gd80-12-14s1t13.flac
     0:47.05        8302604 B   ---   --   ---xx   flac  0.5496  gd80-12-14s2t01.flac
     6:32.19       69193532 B   ---   --   ---xx   flac  0.6151  gd80-12-14s2t02.flac
     8:34.70       90834284 B   ---   --   ---xx   flac  0.5786  gd80-12-14s2t03.flac
     9:37.32      101858108 B   ---   --   ---xx   flac  0.5428  gd80-12-14s2t04.flac
    10:41.04      113081852 B   ---   --   ---xx   flac  0.6043  gd80-12-14s2t05.flac
     8:25.28       89147900 B   ---   --   ---xx   flac  0.6043  gd80-12-14s2t06.flac
    11:52.01      125599196 B   ---   --   ---xx   flac  0.5745  gd80-12-14s2t07.flac
    10:53.30      115259804 B   ---   --   ---xx   flac  0.5675  gd80-12-14s2t08.flac
     6:57.68       73718780 B   ---   --   ---xx   flac  0.6207  gd80-12-14s2t09.flac
    10:14.61      108453116 B   ---   --   ---xx   flac  0.5656  gd80-12-14s2t10.flac
     3:57.24       41863292 B   ---   --   ---xx   flac  0.6092  gd80-12-14s2t11.flac
     8:23.33       88806860 B   ---   --   ---xx   flac  0.6075  gd80-12-14s2t12.flac
     6:01.37       63767468 B   ---   --   ---xx   flac  0.6216  gd80-12-14s2t13.flac
   195:22.53     2067886600 B                            0.5906  (26 files)



More information about the bittorrent mailing list