[bittorrent] gd1980-12-13.136725.mtx.dusborne.flac16

Automated Mailer noreply-bt.e at etree.org
Wed Aug 17 20:19:21 UTC 2016


Band:           Grateful Dead
Torrent Name:   gd1980-12-13.136725.mtx.dusborne.flac16
Uploaded by:    greendude
DB Link:        
Details:        http://bt.etree.org/details.php?id=588258

Contact the seeder at http://db.etree.org/greendude

If the link to this show does not work, it was probably removed for
being non-trade-friendly.

Description / text file:
-------------------------
Grateful Dead 
December 13, 1980
Long Beach Arena  
Long Beach, CA

3 Source Matrix

Soundboard (Shnid:91939)
------------------------------------------------------------------------------------
gd80-12-13.sbd.miller.91939.sbeok.flac16

Recording Info:
SBD -> Cassette Master -> Reel -> Dat (48k)

Transfer Info:
Dat (Sony D8) -> Sound Devices 744T -> Samplitude Professional v10.02 ->
Cool Edit Pro v2.0 -> FLAC (2 Discs Audio / 2 Discs FLAC)

All Transfers and Mastering By Charlie Miller
charliemiller87 at earthlink.net
February 19, 2008

Patch Info:
Nakamichi 300 -> Cassette Master (shnid=88964) supplies:
Minglewood Blues (5:42 - 6:44)
Scarlet Begonias (0:00 - 4:46)
Fire On The Mountain (9:16 - end of track)
Black Peter (8:33 - 8:49)

Notes:
-- Encore moved to end of 1st Set to fit show onto 2 discs
-- Encore can be re-joined with Set 2 seamlessly
-- Drums/Space with Airto Moriera, Flora Purim and Greg Errico
-- Patch source recorded By Joani Walker near the sbd area
-- Thanks to Rob Eaton for lending me his Dats
-- Thanks to Joe B. Jones for his help with the pitch correction

Audience (Shnid:88964)
------------------------------------------------------------------------------------
gd80-12-13.aud-nak300.walker-scotton-miller.88964.sbeok.flac16

Recording Info:
Nakamichi 300 -> Cassette Master (Sony D5M/Maxell UDXL-II90)

Transfer Info:
Cassette Master (Nakamichi DR-1) -> Sound Devices 744T (24bit/96k) ->
Samplitude Professional v9.12 -> FLAC/16
(2 Discs Audio / 2 Discs FLAC)

All Transfers and Mastering By Charlie Miller
charliemiller87 at earthlink.net
December 6, 2007

Patch Info:
(FOB) Nakamichi 700 -> Cassette Master -> Reel -> Dat (shnid=13412) 
supplies:
Drums (10:45 - 10:52)

Notes:
-- Encore moved to end of 1st Set to fit show onto 2 discs
-- Encore can be re-joined with Set 2 seamlessly
-- Drums/Space with Airto Moriera, Flora Purim and Greg Errico
-- Recorded By Joani Walker near the sbd area
-- Thanks to Joani Walker and Paul Scotton for the tapes

Audience (Shnid:124551)
------------------------------------------------------------------------------------
gd1980-12-13.124551.aud.goldshine.sennheiserMkh406.flac16

Recorded by: Ron Goldshine and John Musgrave with help from Mark the B-Man and Mike Martin (guarding the mic stands)

Recorded from the 15th row dead center on the floor with the microphones about 10 feet apart


Source:
2 Sennheiser MKH 406 TUD microphones > Sony D5M (w/ Dolby B, Bias @ 70us on 3 TDK MA C-90 tapes)

My Copy of masters:
Sony D5M (w/ Dolby, Bias @ 120us) > Akaii GX-570 D2 (w/ Dolby B, Bias @ 70us on 2 TDK SA C-90 tapes)
(sounds like an incorrect playback bias setting was used to boost the high end)

Transfer:
Nakamichi CR-7A (azimuth aligned to tape, Dolby B, Bias @ 70us) > Korg MN-2000S 1 Bit DFF @ 2.822 MHz >
AudioGate (convert to 24-96) > Audacity (clean up) > 
AudioGate (convert to 16-44) >
NERO (bass extrapolation of -3dB @ 120 Hz used to restore low frequencies lost with incorrect playback bias setting) > 
CD wav > Flac (Level 8) > Stamp ID3 Tag editor

Clean Up notes:
The pauses between songs are found on my cassette (I should have known better)
Some editing was done to smooth these transitions out better
Tape flips were spliced as needed, the amplitude was increased and DC offsett correction was applied
The second set recording started late and the beginning of Scarlet Begonias is missing
It was an unfortunate coincidence that with these edits the second set fits on 1 cd

For historical reference only and not intended for resale or any commercial use.
Enjoy
-M-
Flying M Productions - (May 2013) - This source is new to circulation (never shared previously from this recorder)


Fan Recordings for Collectors
Trade Freely But Please Do Not Sell
----------------------------------------------------------------------------------------------------------
---Thank you Charlie Miller for your work on the SBD and AUD.
---Thank you Rob Eaton for the SBD DATs.
---Thank you Joe B. Jones for the SBD pitch correction.
---Thank you Joani Walker,Ron Goldshine, John Musgrave, Mark the B-Man and Mike Martin for recoreding the show.
---Thank you Joani Walker and Paul Scotton for the AUD tapes.(Shnid:88964)
---Thank you Flying M Productions for yur work on the AUD.(Shnid:124551)
---Thank you XJ32 for the art work.
---Thank you Germain for your advice, encouragement, guidance and seeding.

Matrix by dusborne

05-31-2016
------------------------------------------------------------------------------------------------------------

Set 1

101 - gd80-12-13s1t01 - Tuning
102 - gd80-12-13s1t02 - Feel Like a Stranger ->
103 - gd80-12-13s1t03 - Sugaree ->
104 - gd80-12-13s1t04 - C.C. Rider
105 - gd80-12-13s1t05 - To Lay Me Down ->
106 - gd80-12-13s1t06 - Minglewod Blues
107 - gd80-12-13s1t07 - Ramble on Rose
108 - gd80-12-13s1t08 - Lost Sailor ->
109 - gd80-12-13s1t09 - Saint of Circumstance ->
110 - gd80-12-13s1t10 - Deal

Set 2

201 - gd80-12-13s2t01 - Tuning
202 - gd80-12-13s2t02 - Scarlet Begonias ->
203 - gd80-12-13s2t03 - Fire on the Mountain
204 - gd80-12-13s2t04 - Playing in the Band ->
205 - gd80-12-13s2t05 - Drums ->*
206 - gd80-12-13s2t06 - Space ->*
207 - gd80-12-13s2t07 - Not Fade Away ->
208 - gd80-12-13s2t08 - Black Peter ->
209 - gd80-12-13s2t09 - Sugar Magnolia

Encore
210 - gd80-12-13s2t10 - One More Saturday Night
*with Airto Moriera, Flora Purim and Greg Errico
----------------------------------------------------------------------------------------------

Tagging notes:
Show information is embedded within the header of each flac file. 
It will display on any player capable of directly playing flac 
files. If converted to wav during processing, all tags will be 
stripped, however audio data will remain unaffected. If you must 
transcode to a lossy format, do so directly Flac > Lossy.
Use ffp to validate audio integrity.
Md5 values will change if tagging is altered.

Dave Usborne 05-31-2016
------------------------------------------------------------------------------------------------
length     expanded size    cdr  WAVE problems  fmt   ratio  filename
     1:43.38       18258620 B   ---   --   ---xx   flac  0.5003  gd80-12-13s1t01.flac
     6:57.20       73605884 B   ---   --   ---xx   flac  0.6141  gd80-12-13s1t02.flac
    11:15.52      119192348 B   ---   --   ---xx   flac  0.6158  gd80-12-13s1t03.flac
     8:30.33       90041660 B   ---   --   ---xx   flac  0.6110  gd80-12-13s1t04.flac
     9:42.52      102787148 B   ---   --   ---xx   flac  0.5609  gd80-12-13s1t05.flac
     7:28.73       79198940 B   ---   --   ---xx   flac  0.6281  gd80-12-13s1t06.flac
     7:59.32       84570908 B   ---   --   ---xx   flac  0.5949  gd80-12-13s1t07.flac
    10:37.36      112451516 B   ---   --   ---xx   flac  0.6055  gd80-12-13s1t08.flac
     2:15.35       23896364 B   ---   --   ---xx   flac  0.6304  gd80-12-13s1t09.flac
     7:08.29       75567452 B   ---   --   ---xx   flac  0.6239  gd80-12-13s1t10.flac
     0:33.43        5922380 B   ---   --   ---xx   flac  0.5499  gd80-12-13s2t01.flac
    11:37.51      123070796 B   ---   --   ---xx   flac  0.6536  gd80-12-13s2t02.flac
    12:08.06      128433356 B   ---   --   ---xx   flac  0.6285  gd80-12-13s2t03.flac
    11:42.27      123896348 B   ---   --   ---xx   flac  0.6309  gd80-12-13s2t04.flac
    14:57.23      158284940 B   ---   --   ---xx   flac  0.5543  gd80-12-13s2t05.flac
     6:25.45       68019884 B   ---   --   ---xx   flac  0.5675  gd80-12-13s2t06.flac
     4:34.51       48453596 B   ---   --   ---xx   flac  0.6560  gd80-12-13s2t07.flac
     9:17.69       98417132 B   ---   --   ---xx   flac  0.5933  gd80-12-13s2t08.flac
     9:08.40       96761324 B   ---   --   ---xx   flac  0.6388  gd80-12-13s2t09.flac
     4:59.21       52793036 B   ---   --   ---xx   flac  0.6365  gd80-12-13s2t10.flac
   159:04.26     1683623632 B                            0.6090  (20 files)



More information about the bittorrent mailing list