[bittorrent] gd1970-09-20.136729.sbd.GEMS.flac16

Automated Mailer noreply-bt.e at etree.org
Wed Aug 17 20:12:29 UTC 2016


Band:           Grateful Dead
Torrent Name:   gd1970-09-20.136729.sbd.GEMS.flac16
Uploaded by:    greendude
DB Link:        
Details:        http://bt.etree.org/details.php?id=588256

Contact the seeder at http://db.etree.org/greendude

If the link to this show does not work, it was probably removed for
being non-trade-friendly.

Description / text file:
-------------------------
Grateful Dead
Sunday, September 20, 1970
Fillmore East
New York, NY

Set One from BETA
Sony L-750ESX-HFB Dynamicron EXCELLENT SUPER HIFI VIDEO CASSETTE-> Sony SLO-1800 STEREO VIDEOCASSETTE RECORDER->
Sony PCM-601ESD DIGITAL AUDIO PROCESSOR-> SP/DIF-> Mytek Stereo 192 Sample Rate Converter-> Upsampled to 44.1kHz/24bit->
SP/DIF-> RME FIREFACE 800-> FireWire 400-> Lenovo K450e Desktop PC-> WaveLab 6.11

Set Two from DAT
DAT-> PANASONIC SV-3700-> TASCAM DA-30 (Spring 1996)-> DAT-> Panasonic SV-3800-> SP/DIF-> RME FIREFACE 800-> FireWire 400-> Lenovo K450e Desktop PC-> Adobe Audition 3.0.1

This recording was gratefully supplied by PO and Stucco TINA Holmes.Thanks to spamjam for the equipment generosity.

Wavelab 7.1 mastering by Jamie Waddell
Track, FLAC and Pack by John Wenzel
16 bit 44.1kHz  a project **GEMS** August 2016

Acoustic set includes both David Grisman and David Nelson as guests

--Set 1 Acoustic--
01 Intro ->
02 Uncle John's Band
03 Deep Elem Blues
04 Friend of the Devil
05 Big Railroad Blues
06 Dark Hollow
07 Ripple
08 To Lay Me Down
09 Truckin'
10 Rosalie McFall
11 Cumberland Blues
12 New Speedway Boogie
13 Brokedown Palace


--Set 2 Electric--
01 Intro ->
02 Casey Jones
03 China Cat Sunflower ->
04 I Know You Rider
05 //Candyman
06 Sittin' on Top of the World
07 Big Boy Pete
08 tuning jam
09 Me & My Uncle
10 Easy Wind
11 Sugar Magnolia
12 Attics of My Life
13 Mama Tried
14 Not Fade Away ->
15 Caution -> ***
16 Feedback ->
17 And We Bid You Goodnight

notes
*** this transfer still had the infamous reel shedding in Caution, which is unlistenable, and really unrepairable.
Here, Marty Weinberg's great AUD was mastered to suit, and patched in the worst 10 minute section of the tape decay.
His aud also had a little issue of dropouts in the area we needed, they were digitally restored.
Some tape decay remains as feedback begins, it seemed a natural place for the sound to get a little nutty.
The complete listen is quite enjoyable now.
- no other board sources were used for any patching here
- the beta had the whole show, however a DAT Stucco transferred was preferred sonically for Set 2 by our  team and used here
- sounds better than any source to date, however tape print through is still audible in select spots
- seems same original source material as what's available, attributed to a 'Buddy Miller heavily edited Reel'
- some beta tracking issues fixed with digital restoration first 2 mins of UJB
- countless fluctuations manually repaired with envelopes in Wavelab montage
- no other digital processing applied at all
- a little extra pan and volume adjustment made in AWBYG, as one of the mics seemed distant


originally shared at www.shnflac.net

    length     expanded size    cdr  WAVE problems  fmt   ratio  filename
     0:04.51         825596 B   ---   --   ---xx   flac  0.8094  gd70-09-20s1t01.flac
     6:57.02       73563548 B   ---   --   ---xx   flac  0.5127  gd70-09-20s1t02.flac
     6:04.50       64327244 B   ---   --   ---xx   flac  0.5135  gd70-09-20s1t03.flac
     3:42.31       39233756 B   ---   --   ---xx   flac  0.5583  gd70-09-20s1t04.flac
     3:23.01       35811596 B   ---   --   ---xx   flac  0.5447  gd70-09-20s1t05.flac
     3:03.71       32448236 B   ---   --   ---xx   flac  0.5517  gd70-09-20s1t06.flac
     4:30.69       47790332 B   ---   --   ---xx   flac  0.5436  gd70-09-20s1t07.flac
     6:23.09       67582412 B   ---   --   ---xx   flac  0.5297  gd70-09-20s1t08.flac
     5:51.56       62048156 B   ---   --   ---xx   flac  0.5654  gd70-09-20s1t09.flac
     3:43.40       39431324 B   ---   --   ---xx   flac  0.5441  gd70-09-20s1t10.flac
     5:13.51       55333196 B   ---   --   ---xx   flac  0.5631  gd70-09-20s1t11.flac
     9:48.60      103864364 B   ---   --   ---xx   flac  0.5447  gd70-09-20s1t12.flac
     5:26.01       57508796 B   ---   --   ---xx   flac  0.5047  gd70-09-20s1t13.flac
     0:05.65        1034924 B   ---   --   ---xx   flac  0.8020  gd70-09-20s2t01.flac
     4:52.10       51532364 B   ---   --   ---xx   flac  0.5214  gd70-09-20s2t02.flac
     5:46.47       61144988 B   ---   --   ---xx   flac  0.5218  gd70-09-20s2t03.flac
     4:50.32       51231308 B   ---   --   ---xx   flac  0.5270  gd70-09-20s2t04.flac
     4:50.14       51188972 B   ---   --   ---xx   flac  0.4941  gd70-09-20s2t05.flac
     3:45.23       39744140 B   ---   --   ---xx   flac  0.5227  gd70-09-20s2t06.flac
     3:10.44       33619532 B   ---   --   ---xx   flac  0.5304  gd70-09-20s2t07.flac
     1:15.21       13279436 B   ---   --   ---xx   flac  0.4816  gd70-09-20s2t08.flac
     3:21.69       35618732 B   ---   --   ---xx   flac  0.5522  gd70-09-20s2t09.flac
    10:53.23      115243340 B   ---   --   ---xx   flac  0.5717  gd70-09-20s2t10.flac
     6:03.64       64183772 B   ---   --   ---xx   flac  0.5715  gd70-09-20s2t11.flac
     6:35.67       69835628 B   ---   --   ---xx   flac  0.5138  gd70-09-20s2t12.flac
     2:49.26       29872796 B   ---   --   ---xx   flac  0.5669  gd70-09-20s2t13.flac
    15:05.55      159771404 B   ---   --   ---xx   flac  0.5566  gd70-09-20s2t14.flac
    18:08.68      192083180 B   ---   --   ---xx   flac  0.5495  gd70-09-20s2t15.flac
     6:26.49       68205692 B   ---   --   ---xx   flac  0.4934  gd70-09-20s2t16.flac
     4:09.11       43949516 B   ---   --   ---xx   flac  0.4570  gd70-09-20s2t17.flac
   166:24.55     1761308280 B                            0.5371  (30 files)



More information about the bittorrent mailing list