[bittorrent] Jerry Garcia Symphonic Celebration Featuring Warren Haynes Summer Stage Central Park New York City, New York 8/8/2016 (Schoeps CCM4V'S FOB)

Automated Mailer noreply-bt.e at etree.org
Tue Aug 16 14:38:01 UTC 2016


Band:           Warren Haynes
Torrent Name:   Jerry Garcia Symphonic Celebration Featuring Warren Haynes Summer Stage Central Park New York City, New York  8/8/2016 (Schoeps CCM4V'S FOB)
Uploaded by:    zmanatl
DB Link:        
Details:        http://bt.etree.org/details.php?id=588230

Contact the seeder at http://db.etree.org/zmanatl

If the link to this show does not work, it was probably removed for
being non-trade-friendly.

Description / text file:
-------------------------
Jerry Garcia Symphonic Celebration
Featuring Warren Haynes
Summer Stage
Central Park
New York City, New York 
8/8/2016 

Source: Schoeps CCM4V's>Sound Devices 722 (24/44)
FOB/DFC/KFC/ZFC/AARP 40' From Stage, 5' High
DSP: Sound Devices 722>Sound Forge 10.0>CD Wave>flac(16)
ID3 Tagged In Foobar 2000
Recorded By: Z-Man
Seeded By: Z-Man

Disc I 1st Set

01 Announcements
02 Jam >
03 Dark Star
04 Bird Song
05 Crazy Fingers
06 Shakedown Street
07 China-Cat Sunflower
08 Jam >
09 Scarlet Begonias 
10 Morning Dew

Disc II 2nd Set

01 Uncle John's Band
02 Orchestra Interlude >
03 West LA Fadeaway
04 Touch Of Gray
05 Doin' That Rag >
06 Drum Solo >
07 Drums And Saxophone >
08 Jam >
09 Blues For Allah >
10 Terrapin Station >
11 Slipknot! >
12 Terrapin Station Reprise 
Encore:
13 Orchetral Overture
14 Warren Banter 
15 Patchwork Quilt 
16 Warren Banter/Band Introductions
17 China Doll

Disc III 3rd Set

01 Warren Introduces Guest Musicians
02 *#@^+Jam >
03 *#@^+Roadrunner >
04 *#@^+That's What Love Will Make You Do >
05 *#@^+%Fire On The Mountain >
06 *#@^+%Scarlet Begonias Reprise
07 *#@^Don't Let Go
08 Outro

* With Eric Krasno - Guitar
# With Marco Benevento - Keyboards
@ With Steven Bernstein - Trumpet 
^ With Eric ? - Saxophone
+ With Rich Daniels - Saxophone
% With 3 Percussionists

Core Band:

Warren Haynes - Guitar And Vocals
Lincoln Schleifer - Bass
Jeff Sipe - Drums
Jackie LaBranch - Vocals
Jasmine Muhammad - Vocals

jerry2016-08-08d01t01.flac:f7110a9b539aa206694e8de93267133a
jerry2016-08-08d01t02.flac:6b9e80bdd1eb13ee1fbff270e3050a9e
jerry2016-08-08d01t03.flac:803ce7fa152ebaa6c370d39e59bbcc19
jerry2016-08-08d01t04.flac:84bfc70130112aac8280b59a71a1d7d7
jerry2016-08-08d01t05.flac:16d8302e0ab13d624508df8c8dbe838a
jerry2016-08-08d01t06.flac:78ba034131072514b73a372df1cbd7d7
jerry2016-08-08d01t07.flac:067557d6b17ca739fe6726a40995d4ae
jerry2016-08-08d01t08.flac:5db2e5dbb14d802de7f85864358ded6a
jerry2016-08-08d01t09.flac:7c707ff2aad1c33e433fa50272622ff3
jerry2016-08-08d01t10.flac:0b1508e4fd1373381b4ac0d91bf9b7f3
jerry2016-08-08d02t01.flac:46c452e1eb05310b6389b6d23d26ad47
jerry2016-08-08d02t02.flac:f1d9f7846c272fbc4896a504c8551545
jerry2016-08-08d02t03.flac:e2dab6a27e99914e3d0df8f1fcaca369
jerry2016-08-08d02t04.flac:bc9e5facf4d0d019287f5a43b39dd575
jerry2016-08-08d02t05.flac:fa962f8601e0b604beb62fb341656444
jerry2016-08-08d02t06.flac:3179e0da93459dabb5fdc9e542d9368b
jerry2016-08-08d02t07.flac:e26be773c7abbf86954713154c4dc192
jerry2016-08-08d02t08.flac:116a9f4d3dac119eb0d2201e88057666
jerry2016-08-08d02t09.flac:4d49f4732de87c77701e1e019954be80
jerry2016-08-08d02t10.flac:c082daef8ea9df2ba0e1aa92c3cdb93c
jerry2016-08-08d02t11.flac:10f62cd3b3032a219cbd6842514ca939
jerry2016-08-08d02t12.flac:a897a74ba95ece675f3c4463dec48dc7
jerry2016-08-08d02t13.flac:a853bc58831e17c4b2fe14f7c617b6a0
jerry2016-08-08d02t14.flac:3d815d17f784ef58410f7b0c4489ee72
jerry2016-08-08d02t15.flac:20269ab101b46d865e1ffb9bf4417c33
jerry2016-08-08d02t16.flac:58c9888db25db72af88a810f994b9c58
jerry2016-08-08d02t17.flac:40a4b18894505ed382d5c4e862ed78a4
jerry2016-08-08d03t01.flac:b175bcdb866d8ee5a9955ef0c81db2ac
jerry2016-08-08d03t02.flac:5de072d7dc300af5bc240bf5e16c885a
jerry2016-08-08d03t03.flac:e08043fe64fcabcdf9306652f5434308
jerry2016-08-08d03t04.flac:6b7f4ed62ed6640530790bb719c9f090
jerry2016-08-08d03t05.flac:645840e91789cd24383b39a2cba181c1
jerry2016-08-08d03t06.flac:3a8d8f5c9947c325c81b8cf2e1681355
jerry2016-08-08d03t07.flac:a8a876083684b5ad5860ec95f94c6fcf
jerry2016-08-08d03t08.flac:208cada7f4d17be56ae74f36d4b487f8

 length     expanded size    cdr  WAVE problems  fmt   ratio  filename
     2:05.31       22122956 B   ---   --   ---xx   flac  0.3556  jerry2016-08-08d01t01.flac
     1:26.06       15184556 B   ---   --   ---xx   flac  0.4175  jerry2016-08-08d01t02.flac
     1:52.48       19869740 B   ---   --   ---xx   flac  0.4702  jerry2016-08-08d01t03.flac
    10:22.15      109756124 B   ---   --   ---xx   flac  0.4529  jerry2016-08-08d01t04.flac
     5:50.57       61874108 B   ---   --   ---xx   flac  0.4507  jerry2016-08-08d01t05.flac
     8:39.32       91626908 B   ---   --   ---xx   flac  0.4955  jerry2016-08-08d01t06.flac
     4:15.73       45153740 B   ---   --   ---xx   flac  0.4671  jerry2016-08-08d01t07.flac
     1:48.74       19225292 B   ---   --   ---xx   flac  0.4988  jerry2016-08-08d01t08.flac
     4:54.55       51991004 B   ---   --   ---xx   flac  0.5067  jerry2016-08-08d01t09.flac
     9:57.64      105461372 B   ---   --   ---xx   flac  0.4875  jerry2016-08-08d01t10.flac
     5:27.69       57845132 B   ---   --   ---xx   flac  0.4899  jerry2016-08-08d02t01.flac
     4:36.21       48735836 B   ---   --   ---xx   flac  0.4963  jerry2016-08-08d02t02.flac
     6:57.34       73638812 B   ---   --   ---xx   flac  0.5207  jerry2016-08-08d02t03.flac
     6:35.73       69849740 B   ---   --   ---xx   flac  0.5386  jerry2016-08-08d02t04.flac
     5:05.43       53903180 B   ---   --   ---xx   flac  0.5161  jerry2016-08-08d02t05.flac
     1:23.63       14789420 B   ---   --   ---xx   flac  0.4846  jerry2016-08-08d02t06.flac
     1:20.06       14126156 B   ---   --   ---xx   flac  0.4582  jerry2016-08-08d02t07.flac
     2:04.28       21939500 B   ---   --   ---xx   flac  0.4289  jerry2016-08-08d02t08.flac
     8:36.23       91076540 B   ---   --   ---xx   flac  0.4523  jerry2016-08-08d02t09.flac
     8:15.09       87339212 B   ---   --   ---xx   flac  0.5274  jerry2016-08-08d02t10.flac
     0:44.52        7883948 B   ---   --   ---xx   flac  0.5388  jerry2016-08-08d02t11.flac
     3:15.53       34522700 B   ---   --   ---xx   flac  0.5764  jerry2016-08-08d02t12.flac
     2:17.55       24296204 B   ---   --   ---xx   flac  0.3946  jerry2016-08-08d02t13.flac
     0:35.26        6235196 B   ---   --   ---xx   flac  0.4731  jerry2016-08-08d02t14.flac
     4:26.04       46931852 B   ---   --   ---xx   flac  0.5254  jerry2016-08-08d02t15.flac
     1:42.56       18124556 B   ---   --   ---xx   flac  0.4299  jerry2016-08-08d02t16.flac
     5:51.32       61991708 B   ---   --   ---xx   flac  0.4184  jerry2016-08-08d02t17.flac
     0:40.15        7091324 B   ---   --   ---xx   flac  0.4328  jerry2016-08-08d03t01.flac
     2:01.30       21415004 B   ---   --   ---xx   flac  0.4421  jerry2016-08-08d03t02.flac
     4:54.37       51948668 B   ---   --   ---xx   flac  0.5800  jerry2016-08-08d03t03.flac
     8:25.62       89227868 B   ---   --   ---xx   flac  0.5708  jerry2016-08-08d03t04.flac
     9:10.66       97175276 B   ---   --   ---xx   flac  0.5646  jerry2016-08-08d03t05.flac
     0:53.62        9495068 B   ---   --   ---xx   flac  0.5480  jerry2016-08-08d03t06.flac
     8:28.28       89677100 B   ---   --   ---xx   flac  0.5017  jerry2016-08-08d03t07.flac
     0:51.27        9059948 B   ---   --   ---xx   flac  0.4171  jerry2016-08-08d03t08.flac
   155:57.04     1650585748 B                            0.4963  (35 files)















More information about the bittorrent mailing list