[bittorrent] Blackberry Smoke 2016-08-13 Blue Hills Bank Pavilion Boston, MA FOB Schoeps mk22>kc5>cmc6>Sonosax SX-R4 **16bit**

Automated Mailer noreply-bt.e at etree.org
Mon Aug 15 22:42:39 UTC 2016


Band:           Other
Torrent Name:   Blackberry Smoke 2016-08-13 Blue Hills Bank Pavilion Boston, MA FOB Schoeps mk22>kc5>cmc6>Sonosax SX-R4 **16bit**
Uploaded by:    andyjah
DB Link:        
Details:        http://bt.etree.org/details.php?id=588206

Contact the seeder at http://db.etree.org/andyjah

If the link to this show does not work, it was probably removed for
being non-trade-friendly.

Description / text file:
-------------------------
Blackberry Smoke
2016-08-13
Blue Hills Bank Pavilion
Boston, MA

mics were FOB NOS 10th row just inside the left PA stack

Schoeps mk22>kc5>cmc6>Sonosax SX-R4 (24bit/96khz) 

WAV>USB>Imac>Audacity(tracking,fades)>Sony Soundforge Convrt(resample(izotope,higher than highest settings)/dither(mbit+/ultra, high dither)to 16 bit/44.1k)>XAct(FLAC 8,ffp,fix sbe,tagging)

Big thanks to Rich Gastwirt for the ticket 

Opened for Gov’t Mule

Charlie Starr - Lead Vocals, Guitar
Richard Turner - Bass, Vocals
Brit Turner - Lead Drums
Paul Jackson - Guitar, Vocals
Brandon Still - Keyboards

http://www.blackberrysmoke.com/

;flac fingerprints generated by xACT 2.38 on 2016-08-15 22:09:32 +0000

bbs2016-08-13.mk22.sxr4.1644.s1t01.flac:095e9c51f9e2b45ca75d93abb1ae7632
bbs2016-08-13.mk22.sxr4.1644.s1t02.flac:9928aa0c4f0cff9f3b01429b81b6d083
bbs2016-08-13.mk22.sxr4.1644.s1t03.flac:c4d4f47444a231040337914c8ca95b7b
bbs2016-08-13.mk22.sxr4.1644.s1t04.flac:ddd9378421b6f5e95059a7b39fade8d1
bbs2016-08-13.mk22.sxr4.1644.s1t05.flac:41b1361c6b6cc209a8d2b4d1df0d31b4
bbs2016-08-13.mk22.sxr4.1644.s1t06.flac:0b9c8fe7707f815f73cc8cbe18bde6d4
bbs2016-08-13.mk22.sxr4.1644.s1t07.flac:40e3a354122fcbad3fc13e8f7d1e9301
bbs2016-08-13.mk22.sxr4.1644.s1t08.flac:e2e80c83ac900ea2802c673d83c19b11
bbs2016-08-13.mk22.sxr4.1644.s1t09.flac:5ae52328d2a24b1bf6ab60049aeed94e
bbs2016-08-13.mk22.sxr4.1644.s1t10.flac:cbbc698a3b47867d276d224b46b71959
bbs2016-08-13.mk22.sxr4.1644.s1t11.flac:e25dbf8762831559a5751ffea0041b56
bbs2016-08-13.mk22.sxr4.1644.s1t12.flac:52cf0d24bce74a1db4d03af1a0865396
bbs2016-08-13.mk22.sxr4.1644.s1t13.flac:92f8aba1d58e917f1712dadbc57f843d
bbs2016-08-13.mk22.sxr4.1644.s1t14.flac:75512454dfa2625d6c852ce83bbcb09e
bbs2016-08-13.mk22.sxr4.1644.s1t15.flac:431361ee1fbceb3d298d273e06526318
bbs2016-08-13.mk22.sxr4.1644.s1t16.flac:94101789eec678286c99b04e84cb7949
bbs2016-08-13.mk22.sxr4.1644.s1t17.flac:b7381a45845744a8177347cf6feb7de5

    length     expanded size    cdr  WAVE problems  fmt   ratio  filename
     0:21.01        3706796 B   ---   --   -----    wav  1.0000  bbs2016-08-13.mk22.sxr4.1644.s1t01.wav
     3:40.35       38890364 B   ---   --   -----    wav  1.0000  bbs2016-08-13.mk22.sxr4.1644.s1t02.wav
     3:29.12       36895868 B   ---   --   -----    wav  1.0000  bbs2016-08-13.mk22.sxr4.1644.s1t03.wav
     3:14.65       34374524 B   ---   --   -----    wav  1.0000  bbs2016-08-13.mk22.sxr4.1644.s1t04.wav
     4:01.23       42566540 B   ---   --   -----    wav  1.0000  bbs2016-08-13.mk22.sxr4.1644.s1t05.wav
     3:12.47       33979388 B   ---   --   -----    wav  1.0000  bbs2016-08-13.mk22.sxr4.1644.s1t06.wav
     7:08.69       75661532 B   ---   --   -----    wav  1.0000  bbs2016-08-13.mk22.sxr4.1644.s1t07.wav
     1:35.64       16908572 B   ---   --   -----    wav  1.0000  bbs2016-08-13.mk22.sxr4.1644.s1t08.wav
     4:53.38       51774620 B   ---   --   -----    wav  1.0000  bbs2016-08-13.mk22.sxr4.1644.s1t09.wav
     4:20.60       46005164 B   ---   --   -----    wav  1.0000  bbs2016-08-13.mk22.sxr4.1644.s1t10.wav
     4:36.31       48759356 B   ---   --   -----    wav  1.0000  bbs2016-08-13.mk22.sxr4.1644.s1t11.wav
     4:20.74       46038092 B   ---   --   -----    wav  1.0000  bbs2016-08-13.mk22.sxr4.1644.s1t12.wav
     4:28.32       47350508 B   ---   --   -----    wav  1.0000  bbs2016-08-13.mk22.sxr4.1644.s1t13.wav
     3:15.59       34536812 B   ---   --   -----    wav  1.0000  bbs2016-08-13.mk22.sxr4.1644.s1t14.wav
     0:39.57        7013708 B   ---   --   -----    wav  1.0000  bbs2016-08-13.mk22.sxr4.1644.s1t15.wav
     1:34.55       16711004 B   ---   --   -----    wav  1.0000  bbs2016-08-13.mk22.sxr4.1644.s1t16.wav
     2:34.42       27264428 B   ---   --   -----    wav  1.0000  bbs2016-08-13.mk22.sxr4.1644.s1t17.wav
    57:29.14      608437276 B                            1.0000  (17 files)




More information about the bittorrent mailing list