[bittorrent] Blackberry Smoke 2016-08-13 Blue Hills Bank Pavilion Boston, MA FOB Schoeps mk4v>nbob actives>Naiant PFAs>Sonosax SX-R4 **16bit**

Automated Mailer noreply-bt.e at etree.org
Mon Aug 15 22:40:16 UTC 2016


Band:           Other
Torrent Name:   Blackberry Smoke 2016-08-13 Blue Hills Bank Pavilion Boston, MA FOB Schoeps mk4v>nbob actives>Naiant PFAs>Sonosax SX-R4 **16bit**
Uploaded by:    andyjah
DB Link:        
Details:        http://bt.etree.org/details.php?id=588204

Contact the seeder at http://db.etree.org/andyjah

If the link to this show does not work, it was probably removed for
being non-trade-friendly.

Description / text file:
-------------------------
Blackberry Smoke
2016-08-13
Blue Hills Bank Pavilion
Boston, MA

mics were FOB DIN 10th row just inside the left PA stack

Schoeps mk4v>nbob actives>Naiant PFAs>Sonosax SX-R4 (24bit/96khz) 

WAV>USB>Imac>Audacity(tracking,fades)>Sony Soundforge Convrt(resample(izotope,higher than highest settings)/dither(mbit+/ultra, high dither)to 16 bit/44.1k)>XAct(FLAC 8,ffp,fix sbe,tagging)

Big thanks to Rich Gastwirt for the ticket 

Opened for Gov’t Mule

Charlie Starr - Lead Vocals, Guitar
Richard Turner - Bass, Vocals
Brit Turner - Lead Drums
Paul Jackson - Guitar, Vocals
Brandon Still - Keyboards

http://www.blackberrysmoke.com/

;flac fingerprints generated by xACT 2.38 on 2016-08-15 22:08:16 +0000

bbs2016-08-13.mk4v.sxr4.1644.s1t01.flac:96cd3a9471b42e801a7b152b9b404561
bbs2016-08-13.mk4v.sxr4.1644.s1t02.flac:022af9ab7d47deb434fe8029b56f60ce
bbs2016-08-13.mk4v.sxr4.1644.s1t03.flac:c23049d1899370628c8b7c9302ad9da1
bbs2016-08-13.mk4v.sxr4.1644.s1t04.flac:1fe2c587b547cc1689ee54d405f61f93
bbs2016-08-13.mk4v.sxr4.1644.s1t05.flac:3c125671f278ce620efec7d60cf25414
bbs2016-08-13.mk4v.sxr4.1644.s1t06.flac:e51bc307037b711a9c96541b5d30f23b
bbs2016-08-13.mk4v.sxr4.1644.s1t07.flac:56b056d42acab863e764798b83b6f481
bbs2016-08-13.mk4v.sxr4.1644.s1t08.flac:a26edfbaa62643e76ca8e69289fe0316
bbs2016-08-13.mk4v.sxr4.1644.s1t09.flac:b92cf0cf2b2cfd4978ad998cfea46c46
bbs2016-08-13.mk4v.sxr4.1644.s1t10.flac:c50368b75ee6383f1782b7a161483b70
bbs2016-08-13.mk4v.sxr4.1644.s1t11.flac:fd63cd9f3e6e59292941606ae0475626
bbs2016-08-13.mk4v.sxr4.1644.s1t12.flac:e1346d2257b3708bdba81fadfe5eb392
bbs2016-08-13.mk4v.sxr4.1644.s1t13.flac:ad6f8fe3bc63ca4227a76237aa884bf2
bbs2016-08-13.mk4v.sxr4.1644.s1t14.flac:6ae4b73934572eae235b595f98b06326
bbs2016-08-13.mk4v.sxr4.1644.s1t15.flac:88ebeb8a06c75a0e8acd56f931ad27f3
bbs2016-08-13.mk4v.sxr4.1644.s1t16.flac:19af60e2e54dc11d610840b5f0c80772
bbs2016-08-13.mk4v.sxr4.1644.s1t17.flac:c08011cac7db991ba79c0849f17a9538

    length     expanded size    cdr  WAVE problems  fmt   ratio  filename
     0:21.01        3706796 B   ---   --   -----    wav  1.0000  bbs2016-08-13.mk4v.sxr4.1644.s1t01.wav
     3:40.35       38890364 B   ---   --   -----    wav  1.0000  bbs2016-08-13.mk4v.sxr4.1644.s1t02.wav
     3:29.12       36895868 B   ---   --   -----    wav  1.0000  bbs2016-08-13.mk4v.sxr4.1644.s1t03.wav
     3:14.65       34374524 B   ---   --   -----    wav  1.0000  bbs2016-08-13.mk4v.sxr4.1644.s1t04.wav
     4:01.23       42566540 B   ---   --   -----    wav  1.0000  bbs2016-08-13.mk4v.sxr4.1644.s1t05.wav
     3:12.47       33979388 B   ---   --   -----    wav  1.0000  bbs2016-08-13.mk4v.sxr4.1644.s1t06.wav
     7:08.69       75661532 B   ---   --   -----    wav  1.0000  bbs2016-08-13.mk4v.sxr4.1644.s1t07.wav
     1:35.64       16908572 B   ---   --   -----    wav  1.0000  bbs2016-08-13.mk4v.sxr4.1644.s1t08.wav
     4:53.38       51774620 B   ---   --   -----    wav  1.0000  bbs2016-08-13.mk4v.sxr4.1644.s1t09.wav
     4:20.60       46005164 B   ---   --   -----    wav  1.0000  bbs2016-08-13.mk4v.sxr4.1644.s1t10.wav
     4:36.31       48759356 B   ---   --   -----    wav  1.0000  bbs2016-08-13.mk4v.sxr4.1644.s1t11.wav
     4:20.74       46038092 B   ---   --   -----    wav  1.0000  bbs2016-08-13.mk4v.sxr4.1644.s1t12.wav
     4:28.32       47350508 B   ---   --   -----    wav  1.0000  bbs2016-08-13.mk4v.sxr4.1644.s1t13.wav
     3:15.59       34536812 B   ---   --   -----    wav  1.0000  bbs2016-08-13.mk4v.sxr4.1644.s1t14.wav
     0:39.57        7013708 B   ---   --   -----    wav  1.0000  bbs2016-08-13.mk4v.sxr4.1644.s1t15.wav
     1:34.55       16711004 B   ---   --   -----    wav  1.0000  bbs2016-08-13.mk4v.sxr4.1644.s1t16.wav
     2:34.42       27264428 B   ---   --   -----    wav  1.0000  bbs2016-08-13.mk4v.sxr4.1644.s1t17.wav
    57:29.14      608437276 B                            1.0000  (17 files)




More information about the bittorrent mailing list