[bittorrent] Gov't Mule 2016-08-13 Blue Hills Bank Pavilion Boston, MA FOB Schoeps mk22>kc5>cmc6>Sonosax SX-R4 **16bit**

Automated Mailer noreply-bt.e at etree.org
Mon Aug 15 00:33:00 UTC 2016


Band:           Govt Mule
Torrent Name:   Gov't Mule 2016-08-13 Blue Hills Bank Pavilion Boston, MA FOB Schoeps mk22>kc5>cmc6>Sonosax SX-R4 **16bit**
Uploaded by:    andyjah
DB Link:        
Details:        http://bt.etree.org/details.php?id=588190

Contact the seeder at http://db.etree.org/andyjah

If the link to this show does not work, it was probably removed for
being non-trade-friendly.

Description / text file:
-------------------------
Gov’t Mule
2016-08-13
Blue Hills Bank Pavilion
Boston, MA

mics were FOB NOS 10th row just inside the left PA stack

Schoeps mk22>kc5>cmc6>Sonosax SX-R4 (24bit/96khz) 

WAV>USB>Imac>Audacity(tracking,fades)>Sony Soundforge Convrt(resample(izotope,higher than highest settings)/dither(mbit+/ultra, high dither)to 16 bit/44.1k)>XAct(FLAC 8,ffp,fix sbe,tagging)

Big thanks to Rich Gastwirt for the ticket 

01. crowd
02. Railroad Boy >
03. Larger Than Life 
04. Since I've Been Loving You
05. Wandering Child 
06. She Said, She Said >
07. Tomorrow Never Knows 
08. Feel Like Breaking Up Somebody's Home 
09. Temporary Saint 
10. Devil Likes It Slow 
11. Unring The Bell 
12. Endless Parade 
13. Lay Your Burden Down >Smokestack Lightning >Lay Your Burden Down 
14. Bad Little Doggie >
15. How Many More Year
16. I’m A Ram 
17. encore break 
18. Southern Man * 
19. Simple Man *

* - with Charlie Starr, Paul Jackson, Richard Turner & Brandon Still; without Jorgen Carlsson

Warren Haynes - Guitar & Vocals 
Matt Abts - Drums 
Danny Louis - Keyboards, Background Vocals and More 
Jorgen Carlsson - Bass 

http://mule.net/

;flac fingerprints generated by xACT 2.38 on 2016-08-15 00:22:10 +0000

mule2016-08-13.mk22.sxr4.1644.s1t01.flac:7c5ee8a21689bfa0ce5ad8c3dbc86aab
mule2016-08-13.mk22.sxr4.1644.s1t02.flac:f86d3a504c988b5136c835c38cc41c7b
mule2016-08-13.mk22.sxr4.1644.s1t03.flac:941d71fcf5ae1fd9dc84e58ddec0778d
mule2016-08-13.mk22.sxr4.1644.s1t04.flac:996f12f282d579731658b94a2b63ec4f
mule2016-08-13.mk22.sxr4.1644.s1t05.flac:f3efa64c98efcdad8a70958c0a376306
mule2016-08-13.mk22.sxr4.1644.s1t06.flac:f7acc5603f55b87077ba96dcf7a51c31
mule2016-08-13.mk22.sxr4.1644.s1t07.flac:a8e7b745f23255e2d7d267e549e090ea
mule2016-08-13.mk22.sxr4.1644.s1t08.flac:2ce5abb311aaa623f11dc59b8a4533c3
mule2016-08-13.mk22.sxr4.1644.s1t09.flac:d3eafde055774eed11d1ee78523e37fd
mule2016-08-13.mk22.sxr4.1644.s1t10.flac:f3a4470eb9236e3f133e3ce0c4f3b84e
mule2016-08-13.mk22.sxr4.1644.s1t11.flac:04b73f654bf13eb1ddb8ffba9c05063d
mule2016-08-13.mk22.sxr4.1644.s1t12.flac:e320b0901a5f5fefdc08b1931e55a296
mule2016-08-13.mk22.sxr4.1644.s1t13.flac:16573fd93a16f9ce5e0e795a3743737f
mule2016-08-13.mk22.sxr4.1644.s1t14.flac:84e43cafc003a05775d85a97ed749590
mule2016-08-13.mk22.sxr4.1644.s1t15.flac:5bb79e53dcc3d6aeb801a95d0fc0ed79
mule2016-08-13.mk22.sxr4.1644.s1t16.flac:23dc37aaafd2182d16fbf3d170036398
mule2016-08-13.mk22.sxr4.1644.s1t17.flac:cedd06656b4c65f2524dda927f556fa0
mule2016-08-13.mk22.sxr4.1644.s1t18.flac:6b9f55552d127a5e7cd4a345be8d5ac3
mule2016-08-13.mk22.sxr4.1644.s1t19.flac:794528d4c254cf24d3fbcf38c20ebab9

    length     expanded size    cdr  WAVE problems  fmt   ratio  filename
     0:51.38        9085820 B   ---   --   -----    wav  1.0000  mule2016-08-13.mk22.sxr4.1644.s1t01.wav
     5:39.21       59849036 B   ---   --   -----    wav  1.0000  mule2016-08-13.mk22.sxr4.1644.s1t02.wav
     7:54.68       83773580 B   ---   --   -----    wav  1.0000  mule2016-08-13.mk22.sxr4.1644.s1t03.wav
     6:43.22       71140988 B   ---   --   -----    wav  1.0000  mule2016-08-13.mk22.sxr4.1644.s1t04.wav
     7:14.35       76639964 B   ---   --   -----    wav  1.0000  mule2016-08-13.mk22.sxr4.1644.s1t05.wav
     4:25.48       46858940 B   ---   --   -----    wav  1.0000  mule2016-08-13.mk22.sxr4.1644.s1t06.wav
     7:30.73       79551740 B   ---   --   -----    wav  1.0000  mule2016-08-13.mk22.sxr4.1644.s1t07.wav
     9:11.24       97252892 B   ---   --   -----    wav  1.0000  mule2016-08-13.mk22.sxr4.1644.s1t08.wav
     5:15.11       55591916 B   ---   --   -----    wav  1.0000  mule2016-08-13.mk22.sxr4.1644.s1t09.wav
    10:19.46      109299836 B   ---   --   -----    wav  1.0000  mule2016-08-13.mk22.sxr4.1644.s1t10.wav
    10:18.30      109085804 B   ---   --   -----    wav  1.0000  mule2016-08-13.mk22.sxr4.1644.s1t11.wav
    11:05.64      117456572 B   ---   --   -----    wav  1.0000  mule2016-08-13.mk22.sxr4.1644.s1t12.wav
    12:46.09      135143612 B   ---   --   -----    wav  1.0000  mule2016-08-13.mk22.sxr4.1644.s1t13.wav
     3:50.71       40739036 B   ---   --   -----    wav  1.0000  mule2016-08-13.mk22.sxr4.1644.s1t14.wav
     7:28.14       79060172 B   ---   --   -----    wav  1.0000  mule2016-08-13.mk22.sxr4.1644.s1t15.wav
     9:48.25      103782044 B   ---   --   -----    wav  1.0000  mule2016-08-13.mk22.sxr4.1644.s1t16.wav
     4:09.39       44015372 B   ---   --   -----    wav  1.0000  mule2016-08-13.mk22.sxr4.1644.s1t17.wav
    10:47.48      114243740 B   ---   --   -----    wav  1.0000  mule2016-08-13.mk22.sxr4.1644.s1t18.wav
    10:49.57      114617708 B   ---   --   -----    wav  1.0000  mule2016-08-13.mk22.sxr4.1644.s1t19.wav
   146:10.68     1547188772 B                            1.0000  (19 files)




More information about the bittorrent mailing list