[bittorrent] gd1978-11-16.sbd.partial.136718.flac1644

Automated Mailer noreply-bt.e at etree.org
Sun Aug 14 03:21:02 UTC 2016


Band:           Grateful Dead
Torrent Name:   gd1978-11-16.sbd.partial.136718.flac1644
Uploaded by:    nfagdtrfb
DB Link:        
Details:        http://bt.etree.org/details.php?id=588169

Contact the seeder at http://db.etree.org/nfagdtrfb

If the link to this show does not work, it was probably removed for
being non-trade-friendly.

Description / text file:
-------------------------
GRATEFUL DEAD
Uptown Theater
Chicago IL
11-16-1978
Partial SBD

t01 Mickey's Hat
t02 Me & My Uncle >
t03 Big River
t04 They Love Each Other
t05 Brown Eyed Women
t06 Dancin' in the Streets >
t07 Deal
t08 Scarlet Begonias >
t09 Fire on the Mountain
t10 Samson & Delilah

Source: SBD > ? > Cassette, from the Brian Schley tape collection.

Transfer: Maxell XLII > Nakamichi CR-5A > Edirol FA-66 > Wavelab 
2448 > R8Brain > CD-Wave > TLH > FLAC 1644 tagged. Transferred 
by Andrew F. 08/2016

Note: Same tracks as found on ID-11486, but in this case sounding 
clearer and without the heavy NR & digital artifacts of that source. 
Thanks Jon Pasternak & Charlie McGuth for organizing this project!

    length     expanded size    cdr  WAVE problems  fmt   ratio  filename
     0:39.34        6959612 B   ---   --   ---xx   flac  0.5652  gd1978-11-16t01.flac
     3:52.50       41042444 B   ---   --   ---xx   flac  0.6113  gd1978-11-16t02.flac
     5:43.67       60662828 B   ---   --   ---xx   flac  0.6192  gd1978-11-16t03.flac
     7:06.50       75264044 B   ---   --   ---xx   flac  0.6109  gd1978-11-16t04.flac
     5:16.16       55780076 B   ---   --   ---xx   flac  0.6060  gd1978-11-16t05.flac
     8:49.28       93381500 B   ---   --   ---xx   flac  0.6106  gd1978-11-16t06.flac
     6:15.01       66152396 B   ---   --   ---xx   flac  0.6135  gd1978-11-16t07.flac
    11:27.48      121299740 B   ---   --   ---xx   flac  0.6154  gd1978-11-16t08.flac
    11:15.44      119173532 B   ---   --   ---xx   flac  0.6208  gd1978-11-16t09.flac
     7:17.47       77197388 B   ---   --   ---xx   flac  0.6108  gd1978-11-16t10.flac
    67:44.10      716913560 B                            0.6134  (10 files)

No errors occured.




More information about the bittorrent mailing list