[bittorrent] Umphrey's McGee - 2016-08-12 - Blue Hills Pavilion - Boston, MA - DPA 4011 > V3 > R44 **1644**

Automated Mailer noreply-bt.e at etree.org
Sat Aug 13 17:15:19 UTC 2016


Band:           Umphrey's McGee
Torrent Name:   Umphrey's McGee - 2016-08-12 - Blue Hills Pavilion - Boston, MA - DPA 4011 > V3 > R44 **1644**
Uploaded by:    bvaz
DB Link:        
Details:        http://bt.etree.org/details.php?id=588161

Contact the seeder at http://db.etree.org/bvaz

If the link to this show does not work, it was probably removed for
being non-trade-friendly.

Description / text file:
-------------------------
Umphrey’s McGee
2016-08-12
Blue Hills Pavilion
Boston, MA

DPA 4011 > V3 > R44 (24/96)
SDHC Card > Sound Forge Pro 2.5 (fades, Normalize, tracking, resample iZotope 64-Bit SRC, dither iZotope MBIT+ Dither) > xAct (Flac level 8, tagging, fix SBE)
FOB/DFC/6’ high (Sec 2, row Z, seat 18)

Recorded and Transferred by Brian V.

Set 1

01. Gents ->
02. White Man’s Moccasins
03. Ringo ->
04. Miss Tinkles Overture
05. 2 x 2
06. Shady Horns intro
06. Speak Up$
07. Headphones and Snowcones$
08. Example 1$

Set 2

01. Dump City
02. Cemetery Walk I
03. Day Nurse ->
04. Divisions
05. Wizard Burial Ground
06. I Got Love$
07. Worm, Wine & Song$
08. encore break^
09. Bad Friday$

$ with the Shady Horns
^ removed about 5 seconds of a fine gentleman that climbed over rows of seats to come yell in my microphones

***Support Bands That Allow Taping/Trading***

shntool output
    length     expanded size    cdr  WAVE problems  fmt   ratio  filename
     4:13.56       44760956 B   ---   --   -----    wav  1.0000  um2016-08-12s1t01.wav
     8:04.22       85429388 B   ---   --   -----    wav  1.0000  um2016-08-12s1t02.wav
    12:20.63      130684220 B   ---   --   -----    wav  1.0000  um2016-08-12s1t03.wav
    10:14.15      108344924 B   ---   --   -----    wav  1.0000  um2016-08-12s1t04.wav
    14:05.64      149208572 B   ---   --   -----    wav  1.0000  um2016-08-12s1t05.wav
     0:50.01        8822396 B   ---   --   -----    wav  1.0000  um2016-08-12s1t06.wav
     7:25.20       78545084 B   ---   --   -----    wav  1.0000  um2016-08-12s1t07.wav
     5:29.58       58172060 B   ---   --   -----    wav  1.0000  um2016-08-12s1t08.wav
     8:19.71       88190636 B   ---   --   -----    wav  1.0000  um2016-08-12s1t09.wav
    12:45.64      135096572 B   ---   --   -----    wav  1.0000  um2016-08-12s2t01.wav
     7:29.71       79370636 B   ---   --   -----    wav  1.0000  um2016-08-12s2t02.wav
     7:29.48       79316540 B   ---   --   -----    wav  1.0000  um2016-08-12s2t03.wav
    18:36.23      196916540 B   ---   --   -----    wav  1.0000  um2016-08-12s2t04.wav
    11:02.25      116835644 B   ---   --   -----    wav  1.0000  um2016-08-12s2t05.wav
     5:16.58       55878860 B   ---   --   -----    wav  1.0000  um2016-08-12s2t06.wav
     3:53.23       41155340 B   ---   --   -----    wav  1.0000  um2016-08-12s2t07.wav
     4:39.14       49248572 B   ---   --   -----    wav  1.0000  um2016-08-12s2t08.wav
     9:27.52      100141148 B   ---   --   -----    wav  1.0000  um2016-08-12s2t09.wav
   151:44.73     1606118088 B                            1.0000  (18 files)



More information about the bittorrent mailing list