[bittorrent] gd1974-06-16.mtx.tobin.136706.flac16

Automated Mailer noreply-bt.e at etree.org
Thu Aug 11 01:50:22 UTC 2016


Band:           Grateful Dead
Torrent Name:   gd1974-06-16.mtx.tobin.136706.flac16
Uploaded by:    greendude
DB Link:        
Details:        http://bt.etree.org/details.php?id=588109

Contact the seeder at http://db.etree.org/greendude

If the link to this show does not work, it was probably removed for
being non-trade-friendly.

Description / text file:
-------------------------
Grateful Dead
Des Moines State Fair Grandstand
Des Moines, IA
June 16, 1974

SBD + AUD Matrix 2 Source Mix

Set 1:
d1t01 - Bertha
d1t02 - Mexicali Blues
d1t03 - Row Jimmy
d1t04 - Beat It on Down the Line
d1t05 - Scarlet Begonias
d1t06 - Black Throated Wind
d1t07 - Sugaree
d1t08 - El Paso
d1t09 - It Must Have Been the Roses
d1t10 - Jack Straw	
d2t01 - China Cat Sunflower->
d2t02 - I Know You Rider
d2t03 - Around & Around	

Set 2:
d2t04 - U.S. Blues
d2t05 - The Race Is On
d2t06 - Eyes Of the World ->
d2t07 - Big River	
d3t01 - Playing in the Band	

Set 3:
d4t01 - Tennessee Jed
d4t02 - Me & My Uncle
d4t03 - Deal
d4t04 - Greatest Story Ever Told
d4t05 - Ship Of Fools	
d4t06 - Truckin'->
d4t07 - Nobody's Jam ->
d4t08 - Wharf Rat->
d4t09 - Going Down the Road Feeling Bad

Encore:
d4t10 - Casey Jones

Audio Information:
Original SBD (shnid = 17701)

S : MR > DAT > CDR > EAC > SHN

Original Notes:
d1t01 Bertha- splice @ 4:04; serious mix problems prior to this
d1t07 Sugaree- MR flip @ 3:59
d3t01 Playin'- d/o @0:01, d/o @3:16
d3t02 T.Jed- <1 sec. digi-noise @0:02
d4t03 W.Rat- MR flip @2:50

Original AUD (shnid = 136659)

source: aud cassette master
taped by Mark Owen

100 feet from stage, center,
sears & robuck tape recorder
w/built in mic(s)

nakamichi dragon > benchmark adc1 24/96
transfer & seeded by Rob Berger 8/2016

Missing portions of the audience were patched with:
SBD (shnid = 26452)
Per Andy Lemieux, the source of this is as follows:
Set 1: MSR>C>DAT>CD
Set 2 & 3: MSC>DAT>CD (except for patch in Wharf Rat which is MSR>?>DAT>CD)

Kudos to Alan and Steve for their hard work.
Thanks to Andy for the patch material for Wharf Rat.

Sean Cribbs, 10/22/2004
---------------------------------------------------------
- Mixed by kevtobin at yahoo.com
- FLAC conversion 09-AUG-2016 - Trader Little Helper
- Tagged 09-AUG-2016 - Tag&Rename
---------------------------------------------------------

Brokedown House Product

    length     expanded size    cdr  WAVE problems  fmt   ratio  filename
     8:12.07       86805308 B   ---   --   -----    wav  1.0000  gd1974-06-16d1t01.wav
     4:16.20       45205484 B   ---   --   -----    wav  1.0000  gd1974-06-16d1t02.wav
     8:56.74       94724492 B   ---   --   -----    wav  1.0000  gd1974-06-16d1t03.wav
     5:53.34       62349212 B   ---   --   -----    wav  1.0000  gd1974-06-16d1t04.wav
     9:22.25       99195644 B   ---   --   -----    wav  1.0000  gd1974-06-16d1t05.wav
     8:00.11       84697916 B   ---   --   -----    wav  1.0000  gd1974-06-16d1t06.wav
    11:28.17      121403228 B   ---   --   -----    wav  1.0000  gd1974-06-16d1t07.wav
     5:27.53       57807500 B   ---   --   -----    wav  1.0000  gd1974-06-16d1t08.wav
     6:10.28       65333900 B   ---   --   -----    wav  1.0000  gd1974-06-16d1t09.wav
     5:14.02       55394348 B   ---   --   -----    wav  1.0000  gd1974-06-16d1t10.wav
     8:52.31       93917756 B   ---   --   -----    wav  1.0000  gd1974-06-16d2t01.wav
     7:10.14       75884972 B   ---   --   -----    wav  1.0000  gd1974-06-16d2t02.wav
     4:16.28       45224300 B   ---   --   -----    wav  1.0000  gd1974-06-16d2t03.wav
     6:32.62       69294668 B   ---   --   -----    wav  1.0000  gd1974-06-16d2t04.wav
     3:20.73       35451740 B   ---   --   -----    wav  1.0000  gd1974-06-16d2t05.wav
    20:07.46      213023036 B   ---   --   -----    wav  1.0000  gd1974-06-16d2t06.wav
     5:50.39       61831772 B   ---   --   -----    wav  1.0000  gd1974-06-16d2t07.wav
    28:50.12      305200268 B   ---   --   -----    wav  1.0000  gd1974-06-16d3t01.wav
     8:12.60       86929964 B   ---   --   -----    wav  1.0000  gd1974-06-16d4t01.wav
     3:06.16       32848076 B   ---   --   -----    wav  1.0000  gd1974-06-16d4t02.wav
     6:01.47       63790988 B   ---   --   -----    wav  1.0000  gd1974-06-16d4t03.wav
     6:07.29       64807052 B   ---   --   -----    wav  1.0000  gd1974-06-16d4t04.wav
     6:06.39       64654172 B   ---   --   -----    wav  1.0000  gd1974-06-16d4t05.wav
     8:07.43       86007980 B   ---   --   -----    wav  1.0000  gd1974-06-16d4t06.wav
    12:43.20      134640284 B   ---   --   -----    wav  1.0000  gd1974-06-16d4t07.wav
     9:38.66      102114476 B   ---   --   -----    wav  1.0000  gd1974-06-16d4t08.wav
     8:05.19       85598732 B   ---   --   -----    wav  1.0000  gd1974-06-16d4t09.wav
     7:09.44       75779132 B   ---   --   -----    wav  1.0000  gd1974-06-16d4t10.wav
   233:21.59     2469916400 B                            1.0000  (28 files)




More information about the bittorrent mailing list