[bittorrent] ja1967-xx-xx.partials.sbd.reelmaster.cass.dat.flac16

Automated Mailer noreply-bt.e at etree.org
Sun Aug 7 08:41:07 UTC 2016


Band:           Other
Torrent Name:   ja1967-xx-xx.partials.sbd.reelmaster.cass.dat.flac16
Uploaded by:    grateful darkstar
DB Link:        
Details:        http://bt.etree.org/details.php?id=588066

Contact the seeder at http://db.etree.org/grateful darkstar

If the link to this show does not work, it was probably removed for
being non-trade-friendly.

Description / text file:
-------------------------
Jefferson Airplane
unknown venue/s
xx/xx/1967

Three partial shows

Source: Soundboard > Reel Master > Cassette > Dat(48)  

Show 1

01   //She Has Funny Cars
02   Don't Let Me Down
03   Let Me In
04   Run Around//
05   Don't Slip Away
06   Fat Angel
07   Come Back Baby


Show 2

01   //Jam
02   She Has Funny Cars
03   Fat Angel


Show 3

01   Intro
02   The Other Side Of This Life
03   Get Together
04   Let Me In
05   White Rabbit
06   Come Back Baby
07   Plastic Fantastic Lover
08   Today
09   Go To Her//


Notes:

- These versions have been provided by an anonymous source.
- These were on the same dats as the March shows from Cáfe Au Go Go and so are possibly from the same run.
- Some level adjustments have been made and tape pauses smoothed out.
- All files are tagged.
- This is the first time that any of these shows has been circulated.



edited and mastered
SIRMick
July 2013


shntool ouput:

    length     expanded size    cdr  WAVE problems  fmt   ratio  filename
     1:44.71       18512636 B   ---   --   ---xx   flac  0.5994  ja1967-xx-xxs1t01.flac
     6:46.36       71703116 B   ---   --   ---xx   flac  0.6325  ja1967-xx-xxs1t02.flac
     3:25.18       36204380 B   ---   --   ---xx   flac  0.6661  ja1967-xx-xxs1t03.flac
     1:44.64       18496172 B   ---   --   ---xx   flac  0.6157  ja1967-xx-xxs1t04.flac
     3:11.28       33758300 B   ---   --   ---xx   flac  0.6431  ja1967-xx-xxs1t05.flac
     7:03.11       74643116 B   ---   --   ---xx   flac  0.5289  ja1967-xx-xxs1t06.flac
     6:12.16       65658476 B   ---   --   ---xx   flac  0.6876  ja1967-xx-xxs1t07.flac
     8:14.68       87301580 B   ---   --   ---xx   flac  0.5481  ja1967-xx-xxs2t01.flac
     3:51.42       40847228 B   ---   --   ---xx   flac  0.6021  ja1967-xx-xxs2t02.flac
     7:20.70       77780684 B   ---   --   ---xx   flac  0.5385  ja1967-xx-xxs2t03.flac
     0:16.21        2871836 B   ---   --   ---xx   flac  0.4492  ja1967-xx-xxs3t01.flac
     7:52.74       83434892 B   ---   --   ---xx   flac  0.6829  ja1967-xx-xxs3t02.flac
     3:52.42       41023628 B   ---   --   ---xx   flac  0.6229  ja1967-xx-xxs3t03.flac
     3:31.20       37267484 B   ---   --   ---xx   flac  0.6975  ja1967-xx-xxs3t04.flac
     2:14.00       23637644 B   ---   --   ---xx   flac  0.6056  ja1967-xx-xxs3t05.flac
     6:40.53       70684700 B   ---   --   ---xx   flac  0.6795  ja1967-xx-xxs3t06.flac
     3:23.70       35973884 B   ---   --   ---xx   flac  0.6133  ja1967-xx-xxs3t07.flac
     3:17.26       34811996 B   ---   --   ---xx   flac  0.5229  ja1967-xx-xxs3t08.flac
     2:45.43       29207180 B   ---   --   ---xx   flac  0.6940  ja1967-xx-xxs3t09.flac
    83:30.23      883818932 B                            0.6170  (19 files)





More information about the bittorrent mailing list