[bittorrent] ja1967-03-05.partial.sbd.reel master.cass.dat flac16

Automated Mailer noreply-bt.e at etree.org
Sun Aug 7 08:38:15 UTC 2016


Band:           Other
Torrent Name:   ja1967-03-05.partial.sbd.reel master.cass.dat flac16
Uploaded by:    grateful darkstar
DB Link:        
Details:        http://bt.etree.org/details.php?id=588065

Contact the seeder at http://db.etree.org/grateful darkstar

If the link to this show does not work, it was probably removed for
being non-trade-friendly.

Description / text file:
-------------------------
Jefferson Airplane
Cáfe Au Go Go
New York, NY
03/05/1967

partial show

Source:  Soundboard > Reel Master > Cassette > Dat (48k)


01   She Has Funny Cars
02   White Rabbit
03   My Best Friend
04   Jorma's//Blues (Come Back Baby)
05   instrumental 1 *
06   instrumental 2 *
07   tech problems
08   Bringing Me Down
09   High Flying Bird
10   3/5 Of A Mile In 10 Seconds
11   Run Around
12   It's No Secret



Grace Slick - vocals
Marty Balin - vocals
Paul Kantner - rhythm guitar, vocals
Jorma Kaukonen - lead guitar, vocals
Jack Casady - bass guitar
Spencer Dryden - drums



Notes:

- This version has been provided by an anonymous source.
- Pauses between some tracks have been smoothed out and a number of small dropouts repaired.
- It seems that they were having mic problems so they filled in with a couple of short instrumentals.  Very reminiscent
of what was later to become the sound of Hot Tuna. * 
- All files are tagged.
- This is the first time that any of this show has been circulated.



edited and mastered
SIRMIck
July 2013


shntool output:

    length     expanded size    cdr  WAVE problems  fmt   ratio  filename
     3:13.64       34195772 B   ---   --   ---xx   flac  0.6325  ja1967-03-05t01.flac
     2:22.12       25077068 B   ---   --   ---xx   flac  0.6083  ja1967-03-05t02.flac
     3:27.29       36583052 B   ---   --   ---xx   flac  0.5937  ja1967-03-05t03.flac
     5:22.39       56892572 B   ---   --   ---xx   flac  0.6692  ja1967-03-05t04.flac
     1:09.02       12176348 B   ---   --   ---xx   flac  0.5743  ja1967-03-05t05.flac
     1:08.52       12117548 B   ---   --   ---xx   flac  0.5673  ja1967-03-05t06.flac
     1:52.32       19832108 B   ---   --   ---xx   flac  0.4870  ja1967-03-05t07.flac
     2:48.43       29736380 B   ---   --   ---xx   flac  0.6593  ja1967-03-05t08.flac
     4:30.30       47698604 B   ---   --   ---xx   flac  0.6251  ja1967-03-05t09.flac
     5:47.06       61224956 B   ---   --   ---xx   flac  0.6540  ja1967-03-05t10.flac
     3:16.57       34708508 B   ---   --   ---xx   flac  0.6608  ja1967-03-05t11.flac
     3:24.01       35987996 B   ---   --   ---xx   flac  0.6903  ja1967-03-05t12.flac
    38:22.67      406230912 B                            0.6337  (12 files)





More information about the bittorrent mailing list