[bittorrent] ja1967-03-04.sbd.reelmaster.dat.flac16

Automated Mailer noreply-bt.e at etree.org
Sun Aug 7 08:34:46 UTC 2016


Band:           Other
Torrent Name:   ja1967-03-04.sbd.reelmaster.dat.flac16
Uploaded by:    grateful darkstar
DB Link:        
Details:        http://bt.etree.org/details.php?id=588064

Contact the seeder at http://db.etree.org/grateful darkstar

If the link to this show does not work, it was probably removed for
being non-trade-friendly.

Description / text file:
-------------------------
Jefferson Airplane
Cáfe Au Go Go
New York, NY
03/04/1967

Source:  Soundboard > Reel Master > Dat (48k)


01   //It's No Secret
02   Get Together
03   White Rabbit
04   Bringing Me Down
05   My Best Friend
06   Jorma's Blues (Come Back Baby)
07   And I Like It
08   She Has Funny Cars
09   Somebody to Love >
10   Leave You Alone
11   Tobacco Road
12   Runnin' 'Round This World
13   Rock Me Baby
14   Today
15   High Flyin' Bird


Grace Slick - vocals
Marty Balin - vocals
Paul Kantner - rhythm guitar, vocals
Jorma Kaukonen - lead guitar, vocals
Jack Casady - bass guitar
Spencer Dryden - drums



Notes:

- This version has been provided by an anonymous source.
- "It's No Secret" fades in.
- a few pops and clicks have been removed and level adjustments made.
- All files are tagged.



edited and mastered
SIRMick
July 2013



shntool output:

    length     expanded size    cdr  WAVE problems  fmt   ratio  filename
     4:21.52       46162748 B   ---   --   ---xx   flac  0.5421  ja1967-03-04t01.flac
     4:53.73       51856940 B   ---   --   ---xx   flac  0.5281  ja1967-03-04t02.flac
     3:20.35       35362364 B   ---   --   ---xx   flac  0.4961  ja1967-03-04t03.flac
     3:27.57       36648908 B   ---   --   ---xx   flac  0.6024  ja1967-03-04t04.flac
     4:13.74       44803292 B   ---   --   ---xx   flac  0.5546  ja1967-03-04t05.flac
     5:55.59       62760812 B   ---   --   ---xx   flac  0.6647  ja1967-03-04t06.flac
     6:08.16       64952876 B   ---   --   ---xx   flac  0.5181  ja1967-03-04t07.flac
     3:02.55       32234204 B   ---   --   ---xx   flac  0.6034  ja1967-03-04t08.flac
     3:13.33       34122860 B   ---   --   ---xx   flac  0.6310  ja1967-03-04t09.flac
     5:44.14       60714572 B   ---   --   ---xx   flac  0.6138  ja1967-03-04t10.flac
     3:53.70       41265884 B   ---   --   ---xx   flac  0.5941  ja1967-03-04t11.flac
     2:23.11       25251116 B   ---   --   ---xx   flac  0.6318  ja1967-03-04t12.flac
     5:59.12       63355868 B   ---   --   ---xx   flac  0.6263  ja1967-03-04t13.flac
     3:06.39       32902172 B   ---   --   ---xx   flac  0.4804  ja1967-03-04t14.flac
     4:33.54       48284252 B   ---   --   ---xx   flac  0.5908  ja1967-03-04t15.flac
    64:18.54      680678868 B                            0.5803  (15 files)





More information about the bittorrent mailing list