[bittorrent] gd79-11-23.136697.sbd.miller.flac16

Automated Mailer noreply-bt.e at etree.org
Sun Aug 7 02:33:36 UTC 2016


Band:           Grateful Dead
Torrent Name:   gd79-11-23.136697.sbd.miller.flac16
Uploaded by:    greendude
DB Link:        
Details:        http://bt.etree.org/details.php?id=588058

Contact the seeder at http://db.etree.org/greendude

If the link to this show does not work, it was probably removed for
being non-trade-friendly.

Description / text file:
-------------------------
Grateful Dead - November 23, 1979
Golden Hall - San Diego, CA

Recording Info:
SBD -> Cassette Master -> Cassette -> Dat -> CD

Mastering Info:
Audition CC 2015 -> Samplitude Pro 11.2.1 -> FLAC
(3 Discs Audio / 1 DVD FLAC)

All Mastering By Charlie Miller

charliemiller87 at earthlink.net

August 6, 2016

Patch Info:
Nak 700 -> Cassette Master (shnid=107405) supplies:
Deal (4:50 - end of track)
Sugaree (5:09 - 5:50)

Notes:
-- Thanks to the MOTB crew for the patch material
-- Thanks to Joe B. Jones for his help with the pitch correction

Set 1:
s1t01 - Alabama Getaway ->
s1t02 - The Promised Land
s1t03 - They Love Each Other
s1t04 - Me And My Uncle ->
s1t05 - Big River
s1t06 - High Time
s1t07 - New Minglewood Blues
s1t08 - Stagger Lee
s1t09 - Easy To Love You
s1t10 - Looks Like Rain ->
s1t11 - Deal

Set 2:
s2t01 - The Music Never Stopped ->
s2t02 - Sugaree
s2t03 - Estimated Prophet ->
s2t04 - Eyes Of The World ->
s2t05 - Drums ->
s2t06 - Space ->
s2t07 - Not Fade Away ->
s2t08 - Black Peter ->
s2t09 - Good Lovin'

Encore:
s2t10 - U.S. Blues


SHNTOOL OUTPUT:
    length     expanded size    cdr  WAVE problems  fmt   ratio  filename
     7:31.65       79709324 B   ---   --   ---xx   flac  0.6724  gd79-11-23s1t01.flac
     4:29.04       47461052 B   ---   --   ---xx   flac  0.6915  gd79-11-23s1t02.flac
     7:22.22       78020588 B   ---   --   ---xx   flac  0.6430  gd79-11-23s1t03.flac
     2:58.59       31538012 B   ---   --   ---xx   flac  0.6749  gd79-11-23s1t04.flac
     6:02.23       63910940 B   ---   --   ---xx   flac  0.6704  gd79-11-23s1t05.flac
     7:27.36       78935516 B   ---   --   ---xx   flac  0.6303  gd79-11-23s1t06.flac
     8:02.29       85093052 B   ---   --   ---xx   flac  0.6582  gd79-11-23s1t07.flac
     7:53.25       83496044 B   ---   --   ---xx   flac  0.6390  gd79-11-23s1t08.flac
     3:42.53       39285500 B   ---   --   ---xx   flac  0.6653  gd79-11-23s1t09.flac
     8:13.55       87094604 B   ---   --   ---xx   flac  0.6449  gd79-11-23s1t10.flac
     5:17.64       56069372 B   ---   --   ---xx   flac  0.6841  gd79-11-23s1t11.flac
     6:14.40       66067724 B   ---   --   ---xx   flac  0.6873  gd79-11-23s2t01.flac
    16:07.63      170727020 B   ---   --   ---xx   flac  0.6510  gd79-11-23s2t02.flac
    11:54.36      126034316 B   ---   --   ---xx   flac  0.6426  gd79-11-23s2t03.flac
    12:44.68      134929580 B   ---   --   ---xx   flac  0.6659  gd79-11-23s2t04.flac
    10:48.05      114319004 B   ---   --   ---xx   flac  0.5805  gd79-11-23s2t05.flac
     3:50.46       40680236 B   ---   --   ---xx   flac  0.5869  gd79-11-23s2t06.flac
     6:53.36       72937916 B   ---   --   ---xx   flac  0.6557  gd79-11-23s2t07.flac
    10:24.58      110210060 B   ---   --   ---xx   flac  0.6164  gd79-11-23s2t08.flac
     7:31.55       79685804 B   ---   --   ---xx   flac  0.6566  gd79-11-23s2t09.flac
     5:23.15       57012524 B   ---   --   ---xx   flac  0.6796  gd79-11-23s2t10.flac
   160:55.32     1703218188 B                            0.6487  (21 files)




More information about the bittorrent mailing list