[bittorrent] gd73-11-01s2.sbd.reel1.dat.flac16 l

Automated Mailer noreply-bt.e at etree.org
Sat Aug 6 23:15:11 UTC 2016


Band:           Grateful Dead
Torrent Name:   gd73-11-01s2.sbd.reel1.dat.flac16 l
Uploaded by:    greendude
DB Link:        
Details:        http://bt.etree.org/details.php?id=588053

Contact the seeder at http://db.etree.org/greendude

If the link to this show does not work, it was probably removed for
being non-trade-friendly.

Description / text file:
-------------------------
Grateful Dead
McGaw Memorial Hall,
Northwestern University
Evanston, IL
11/01/1973

Set II

Source: Soundboard > Master-Reel > Reel (1st gen) > DAT (44.1k)


01   Morning Dew >
02   Playing In The Band >
03   Uncle John's Band > *
04   Playing In The Band (reprise)
05   Mississippi Half-Step Uptown Toodeloo >
06   He's Gone > *
07   Truckin' >
08   Wharf Rat
09   Sugar Magnolia



Notes:

- This version has been provided by an anonymous source.
- Unlike other sources this is as clean as a whistle.
- Both "Uncle John's Band" and "He's Gone" in common with other circulating sources, had small gaps which have been closed up *
- The DC offset has been removed and the overall gain increased to -0.01 after making some level adjustments.
- All files are tagged.



edited and mastered
SIRMick
August 2014



shntool ouput:

    length     expanded size    cdr  WAVE problems  fmt   ratio  filename
    13:38.20      144342284 B   ---   --   ---xx   flac  0.4994  gd1973-11-01s2t01.flac
    14:53.27      157588748 B   ---   --   ---xx   flac  0.5215  gd1973-11-01s2t02.flac
     9:35.71      101597036 B   ---   --   ---xx   flac  0.5087  gd1973-11-01s2t03.flac
     5:56.46       62906636 B   ---   --   ---xx   flac  0.5119  gd1973-11-01s2t04.flac
     7:58.72       84488588 B   ---   --   ---xx   flac  0.5270  gd1973-11-01s2t05.flac
    10:28.66      110934476 B   ---   --   ---xx   flac  0.4779  gd1973-11-01s2t06.flac
    10:18.11      109041116 B   ---   --   ---xx   flac  0.5233  gd1973-11-01s2t07.flac
     9:54.15      104816924 B   ---   --   ---xx   flac  0.4940  gd1973-11-01s2t08.flac
    10:00.31      105912956 B   ---   --   ---xx   flac  0.5363  gd1973-11-01s2t09.flac
    92:44.59      981628764 B                            0.5107  (9 files)




More information about the bittorrent mailing list