[bittorrent] gd73-10-25.sbd.reel1.dat.flac16 l

Automated Mailer noreply-bt.e at etree.org
Sat Aug 6 23:12:51 UTC 2016


Band:           Grateful Dead
Torrent Name:   gd73-10-25.sbd.reel1.dat.flac16 l
Uploaded by:    greendude
DB Link:        
Details:        http://bt.etree.org/details.php?id=588052

Contact the seeder at http://db.etree.org/greendude

If the link to this show does not work, it was probably removed for
being non-trade-friendly.

Description / text file:
-------------------------
Grateful Dead
Dane County Coliseum
Madison, WI
10/25/73


Source: Soundboard > Master-Reel > Reel (1st gen) > DAT (44.1k)


Set 1

01   Bertha
02   Big River
03   Here Comes Sunshine
04   Black Throated Wind
05   They Love Each Other
06   Mexicali Blues
07   //Tennessee Jed//
[missing] Looks Like Rain
[missing] Deal
08   //El Paso
09   //Row Jimmy
10   //Playing In The//Band


Set II

01   China Cat Sunflower >
02   I Know You Rider
03   Me And My Uncle
04   Dark Star >
05   Mind Left Body Jam >
06   Dark Star Jam >
07   Eyes Of The World >
08   Stella Blue
09   Weather Report Suite Prelude > Weather Report Suite Part 1 >
10   Let It Grow
11   Goin' Down The Road Feeling Bad >
12   One More Saturday Night

encore

[missing] Uncle John's Band


Notes:

- This version has been provided by an anonymous source.
- Several clicks have been removed and a number of level adjustments made.
- The last 47 seconds of what we have of "Tennessee Jed" has a complete dropout in the right channel.
  I tried patching in the left channel but it just doesn't sound right so I've left it as is.
- I have removed a couple of small patches of wierdness" in "Let It Grow" and crossfaded the parts together.
- This is the first time that "Tennessee Jed" has circulated.  Other than that, this source has the same cuts as all circulating copies but is missing "Uncle   John's Band."
- All files are tagged.



edited and mastered
SIRMick
September 2014



shntool ouput:

    length     expanded size    cdr  WAVE problems  fmt   ratio  filename
     6:04.02       64214348 B   ---   --   ---xx   flac  0.5865  gd1973-10-25s101.flac
     5:06.74       54152492 B   ---   --   ---xx   flac  0.5635  gd1973-10-25s102.flac
    10:47.33      114208460 B   ---   --   ---xx   flac  0.5706  gd1973-10-25s103.flac
     6:44.23       71319740 B   ---   --   ---xx   flac  0.5452  gd1973-10-25s104.flac
     6:04.21       64259036 B   ---   --   ---xx   flac  0.5751  gd1973-10-25s105.flac
     3:31.68       37380380 B   ---   --   ---xx   flac  0.5786  gd1973-10-25s106.flac
     7:41.08       81339260 B   ---   --   ---xx   flac  0.5560  gd1973-10-25s107.flac
     4:02.00       42688844 B   ---   --   ---xx   flac  0.5815  gd1973-10-25s108.flac
     8:17.35       87753164 B   ---   --   ---xx   flac  0.5571  gd1973-10-25s109.flac
    15:44.26      166582796 B   ---   --   ---xx   flac  0.5938  gd1973-10-25s110.flac
     8:42.39       92172572 B   ---   --   ---xx   flac  0.5528  gd1973-10-25s201.flac
     5:37.40       59540924 B   ---   --   ---xx   flac  0.5478  gd1973-10-25s202.flac
     2:58.49       31514492 B   ---   --   ---xx   flac  0.5723  gd1973-10-25s203.flac
     5:13.65       55366124 B   ---   --   ---xx   flac  0.5281  gd1973-10-25s204.flac
     2:01.22       21396188 B   ---   --   ---xx   flac  0.5491  gd1973-10-25s205.flac
    16:18.40      172613324 B   ---   --   ---xx   flac  0.5263  gd1973-10-25s206.flac
    15:54.09      168306812 B   ---   --   ---xx   flac  0.5318  gd1973-10-25s207.flac
     8:46.16       92824076 B   ---   --   ---xx   flac  0.4358  gd1973-10-25s208.flac
     5:41.32       60227708 B   ---   --   ---xx   flac  0.4529  gd1973-10-25s209.flac
    10:57.55      116024204 B   ---   --   ---xx   flac  0.5201  gd1973-10-25s210.flac
     8:38.53       91499900 B   ---   --   ---xx   flac  0.5932  gd1973-10-25s211.flac
     4:47.60       50767964 B   ---   --   ---xx   flac  0.6148  gd1973-10-25s212.flac
   169:42.20     1796152808 B                            0.5485  (22 files)




More information about the bittorrent mailing list