[bittorrent] gd73-09-11.sbd.reel.reel1.dat.flac16 l

Automated Mailer noreply-bt.e at etree.org
Sat Aug 6 23:10:19 UTC 2016


Band:           Grateful Dead
Torrent Name:   gd73-09-11.sbd.reel.reel1.dat.flac16 l
Uploaded by:    greendude
DB Link:        
Details:        http://bt.etree.org/details.php?id=588051

Contact the seeder at http://db.etree.org/greendude

If the link to this show does not work, it was probably removed for
being non-trade-friendly.

Description / text file:
-------------------------
Grateful Dead
William And Mary Hall
College Of William And Mary
Williamsburg, VA
09/11/1973


Source: Soundboard > Master-Reel > Reel (1st gen) > DAT (44.1)


Set I

01   The Promised Land
02   Sugaree
03   The Race Is On
04   Loser
05   Looks Like Rain
06   Tennessee Jed
07   Jack Straw
08   China Cat Sunflower >
09   I Know You Rider
10   El Paso
11   Mississippi Half-Step Uptown Toodeloo
12   Playing In The//Band


Set II

01   Let Me Sing Your Blues Away *
02   Weather Report Suite Prelude > Weather Report Suite Part 1 >
03   Let It Grow
04   Row Jimmy
05   Big River
06   Deal
07   Beat It On Down The Line
08   Dark Star >
09   Morning Dew//
10   //Sugar Magnolia


guests:

"Let Me Sing Your Blues Away" > "Let It Grow"

Joe Ellis - trumpet, vocals (*)
Martin Fierro - saxophone


Notes:

- This version has been provided by an anonymous source.
- A number of clicks have been removed and the transitions cleaned up.  Some level adjustments have also been made.
- There were some problems with the transfer. Three different players were tried but still resulted in the last 1:27 of "Morning Dew" being unusable.
- Most of "Sugar Magnolia" is present, only the start is clipped.  However, the first 50 seconds or so is not of the best quality due to the aforementioned transfer problems.
- There were a number of sub-second dropouts sprinkled around during Set II.  These have been patched with shnid 184.


Comments:

- The drums are so crisp in the mix that for me they, to some extent, dominate at times.  Sometimes they keep my mind from wandering to everything else that is happening.



edited and mastered
SIRMick
September 2014


md5s:

    length     expanded size    cdr  WAVE problems  fmt   ratio  filename
     3:14.12       34249868 B   ---   --   ---xx   flac  0.5867  gd1973-09-11s101.flac
     8:26.42       89357228 B   ---   --   ---xx   flac  0.5468  gd1973-09-11s102.flac
     3:02.49       32220092 B   ---   --   ---xx   flac  0.5832  gd1973-09-11s103.flac
     7:17.26       77147996 B   ---   --   ---xx   flac  0.5470  gd1973-09-11s104.flac
     8:10.22       86487788 B   ---   --   ---xx   flac  0.5408  gd1973-09-11s105.flac
     8:25.63       89230220 B   ---   --   ---xx   flac  0.5600  gd1973-09-11s106.flac
     4:53.51       51805196 B   ---   --   ---xx   flac  0.5643  gd1973-09-11s107.flac
     9:11.18       97238780 B   ---   --   ---xx   flac  0.5773  gd1973-09-11s108.flac
     5:56.34       62878412 B   ---   --   ---xx   flac  0.5758  gd1973-09-11s109.flac
     4:33.74       48331292 B   ---   --   ---xx   flac  0.5630  gd1973-09-11s110.flac
     7:37.74       80788892 B   ---   --   ---xx   flac  0.5733  gd1973-09-11s111.flac
    16:43.14      176962172 B   ---   --   ---xx   flac  0.5862  gd1973-09-11s112.flac
     6:10.04       65277452 B   ---   --   ---xx   flac  0.5705  gd1973-09-11s201.flac
     5:54.64       62596172 B   ---   --   ---xx   flac  0.5278  gd1973-09-11s202.flac
    11:15.41      119166476 B   ---   --   ---xx   flac  0.5910  gd1973-09-11s203.flac
     9:02.32       95684108 B   ---   --   ---xx   flac  0.5510  gd1973-09-11s204.flac
     4:28.58       47411660 B   ---   --   ---xx   flac  0.5664  gd1973-09-11s205.flac
     4:56.28       52280300 B   ---   --   ---xx   flac  0.5692  gd1973-09-11s206.flac
     3:24.43       36086780 B   ---   --   ---xx   flac  0.5763  gd1973-09-11s207.flac
    23:13.23      245779340 B   ---   --   ---xx   flac  0.5405  gd1973-09-11s208.flac
    10:52.37      115099868 B   ---   --   ---xx   flac  0.5202  gd1973-09-11s209.flac
     9:11.08       97215260 B   ---   --   ---xx   flac  0.5997  gd1973-09-11s210.flac
   176:02.67     1863295352 B                            0.5621  (22 files)




More information about the bittorrent mailing list