[bittorrent] gd73-07-28.sbd.reel1.dat.flac16 l

Automated Mailer noreply-bt.e at etree.org
Sat Aug 6 23:07:33 UTC 2016


Band:           Grateful Dead
Torrent Name:   gd73-07-28.sbd.reel1.dat.flac16 l
Uploaded by:    greendude
DB Link:        
Details:        http://bt.etree.org/details.php?id=588050

Contact the seeder at http://db.etree.org/greendude

If the link to this show does not work, it was probably removed for
being non-trade-friendly.

Description / text file:
-------------------------
Grateful Dead
Grand Prix Racecourse
Watkins Glen, NY
07/28/1973


Source: Soundboard > Master-Reel > Reel (1st gen) > DAT (48k)


Set I

01   Bertha
02   Beat It On Down The Line
03   Brown Eyed Women
04   Mexicali Blues
05   Box Of Rain
06   Here Comes Sunshine
07   Looks Like Rain
08   Row Jimmy
09   tuning
10   Jack Straw
11   Deal
12   Playing In//The Band


Set II

[missing] Around And Around
01   tuning
02   Loose//Lucy
03   Big River
04   He's Gone >
05   Tru//ckin' >
06   Nobody's Fault But Mine Jam >
07   El Paso
08   China Cat Sunflower >
09   I Know//You Rider
10   tuning
11   Stella Blue
12   Eyes Of//The World >
13   Sugar Magnolia

encores

14   Sing Me Back Home
[missing] Not Fade Away
[missing] Mountain Jam
[missing] Johnny B. Goode



Notes:

- This version has been provided by an anonymous source.
- The speed of some tracks in Set I were all over the place, in parts they were as much as 30% too fast.  The Start of "Looks Like Rain" was so mangled I have put in a 17.5 second patch using Matt Smith's transfer of Will Boswell's copy of Jerry's master aud.  I edited it a little so that it is a better fit.
- The whole of Set I and the first two tracks of Set II have been speed adjusted by reference to Matt Smith's transfer.
- A number of level adjustments have been made.
- Cuts in "Playing In The Band", "Loose Lucy","Truckin'", "I Know You Rider" and "Eyes Of he World" have been smoothed, as far as possible, with crossfades.
- There is some static like noise during parts of "He's Gone" and "Truckin'" 
- All files are tagged.


Comments:

- NFA, Mountain Jam and Johnny B. Goode with the Allman Brothers and the Band. This show remains the largest rock concert in history.
- As you can see from the above this is far from perfect but when it's good, it's very good and you do get 5 tracks that have not previously circulated in soundboard quality.



edited and mastered
SIRMick
February 2014



shntool output:

    length     expanded size    cdr  WAVE problems  fmt   ratio  filename
     6:42.13       70943420 B   ---   --   ---xx   flac  0.5855  gd1973-07-28s1t01.flac
     3:43.57       39471308 B   ---   --   ---xx   flac  0.5619  gd1973-07-28s1t02.flac
     5:22.17       56840828 B   ---   --   ---xx   flac  0.5367  gd1973-07-28s1t03.flac
     3:32.44       37500332 B   ---   --   ---xx   flac  0.5664  gd1973-07-28s1t04.flac
     5:32.46       58673036 B   ---   --   ---xx   flac  0.5499  gd1973-07-28s1t05.flac
    10:23.73      110068940 B   ---   --   ---xx   flac  0.5641  gd1973-07-28s1t06.flac
     7:02.46       74549036 B   ---   --   ---xx   flac  0.5103  gd1973-07-28s1t07.flac
     8:41.10       91927964 B   ---   --   ---xx   flac  0.5301  gd1973-07-28s1t08.flac
     1:25.32       15069308 B   ---   --   ---xx   flac  0.4383  gd1973-07-28s1t09.flac
     4:47.56       50758556 B   ---   --   ---xx   flac  0.5546  gd1973-07-28s1t10.flac
     6:28.41       68539676 B   ---   --   ---xx   flac  0.5896  gd1973-07-28s1t11.flac
    23:42.51      250960796 B   ---   --   ---xx   flac  0.5783  gd1973-07-28s1t12.flac
     0:17.40        3092924 B   ---   --   ---xx   flac  0.4624  gd1973-07-28s2t01.flac
     6:40.33       70637660 B   ---   --   ---xx   flac  0.5868  gd1973-07-28s2t02.flac
     4:36.24       48742892 B   ---   --   ---xx   flac  0.5891  gd1973-07-28s2t03.flac
    12:40.03      134071100 B   ---   --   ---xx   flac  0.5511  gd1973-07-28s2t04.flac
     7:02.05       74452604 B   ---   --   ---xx   flac  0.5843  gd1973-07-28s2t05.flac
     4:11.17       44316428 B   ---   --   ---xx   flac  0.5217  gd1973-07-28s2t06.flac
     5:01.00       53096444 B   ---   --   ---xx   flac  0.5408  gd1973-07-28s2t07.flac
     8:20.71       88367036 B   ---   --   ---xx   flac  0.5836  gd1973-07-28s2t08.flac
     4:58.27       52630748 B   ---   --   ---xx   flac  0.5912  gd1973-07-28s2t09.flac
     2:56.70       31211084 B   ---   --   ---xx   flac  0.4666  gd1973-07-28s2t10.flac
     7:46.51       82322396 B   ---   --   ---xx   flac  0.5268  gd1973-07-28s2t11.flac
    19:54.28      210687500 B   ---   --   ---xx   flac  0.5876  gd1973-07-28s2t12.flac
    10:16.24      108718892 B   ---   --   ---xx   flac  0.5806  gd1973-07-28s2t13.flac
     9:26.66       99997676 B   ---   --   ---xx   flac  0.5026  gd1973-07-28s2t14.flac
   191:34.45     2027648584 B                            0.5600  (26 files)



More information about the bittorrent mailing list