[bittorrent] gd72-09-28.sbd.reel1.dat.flac16 l

Automated Mailer noreply-bt.e at etree.org
Sat Aug 6 21:51:59 UTC 2016


Band:           Grateful Dead
Torrent Name:   gd72-09-28.sbd.reel1.dat.flac16 l
Uploaded by:    greendude
DB Link:        
Details:        http://bt.etree.org/details.php?id=588049

Contact the seeder at http://db.etree.org/greendude

If the link to this show does not work, it was probably removed for
being non-trade-friendly.

Description / text file:
-------------------------
Grateful Dead
Stanley Theatre
Jersey City, NJ
09/28/1972


Source: Soundboard > Master-Reel > Reel (1st gen) > DAT (44.1k)


Set I	 

[missing] Truckin'
[missing] Loser
01   Beat It On Down The Line
02   Brown Eyed Women
03   Mexicali Blues
04   Mississippi Half-Step//Uptown Toodeloo
05   Black Throated Wind
06   Don't Ease Me In
07   Big River
08   Tennessee Jed
09   The Promised Land
10   China Cat Sunflower >
11   I Know You Rider//
12   Playing In The Band


Set II	 

01   //Bertha
02   Greatest Story Ever Told
03   Brokedown Palace
04   Mexican Hat Dance tuning
05   Me And My Uncle
06   Ramble On Rose
07   El Paso
08   He's Gone > 
09   The Other//One > 
10   Me And Bobby McGee > 
11   The Other One > 
12   Wharf Rat
13   Sugar Magnolia
[missing] Not Fade Away > 
[missing] Goin' Down The Road Feeling Bad > 
[missing] Not Fade Away


Notes:

- This version has been provided by an anonymous source.
- I compared this to other versions in circulation and found that both tracks in this are inverted. I have left them as they were.   - Speed corrections and level adjustments have been made.
- This has the same cuts as in all circulating versions. No patches have been made, this is what was on the tape.  The cuts in TOO
   have been edited out so that it flows.
- All files are tagged.


Comments:

- I don't recall having listened to this show before but I've been hooked by The Other One, it's a monster.


edited and mastered
SIRMIck
February 2014




shntool output:

    length     expanded size    cdr  WAVE problems  fmt   ratio  filename
     4:00.52       42458348 B   ---   --   ---xx   flac  0.5728  gd1972-09-28s1t01.flac
     5:14.32       55464908 B   ---   --   ---xx   flac  0.5452  gd1972-09-28s1t02.flac
     3:59.37       42246668 B   ---   --   ---xx   flac  0.5610  gd1972-09-28s1t03.flac
     5:07.12       54183068 B   ---   --   ---xx   flac  0.5674  gd1972-09-28s1t04.flac
     6:49.51       72267596 B   ---   --   ---xx   flac  0.5530  gd1972-09-28s1t05.flac
     4:10.44       44203532 B   ---   --   ---xx   flac  0.5686  gd1972-09-28s1t06.flac
     4:59.38       52833020 B   ---   --   ---xx   flac  0.5671  gd1972-09-28s1t07.flac
     8:21.60       88517564 B   ---   --   ---xx   flac  0.5585  gd1972-09-28s1t08.flac
     3:22.39       35724572 B   ---   --   ---xx   flac  0.5768  gd1972-09-28s1t09.flac
     6:14.14       66006572 B   ---   --   ---xx   flac  0.5727  gd1972-09-28s1t10.flac
     3:35.26       37987196 B   ---   --   ---xx   flac  0.5596  gd1972-09-28s1t11.flac
    20:27.67      216600428 B   ---   --   ---xx   flac  0.5667  gd1972-09-28s1t12.flac
     5:52.20       62139884 B   ---   --   ---xx   flac  0.5887  gd1972-09-28s2t01.flac
     5:39.61       59943116 B   ---   --   ---xx   flac  0.5808  gd1972-09-28s2t02.flac
     5:36.43       59371580 B   ---   --   ---xx   flac  0.5186  gd1972-09-28s2t03.flac
     1:05.58       11602460 B   ---   --   ---xx   flac  0.4865  gd1972-09-28s2t04.flac
     3:11.26       33753596 B   ---   --   ---xx   flac  0.5594  gd1972-09-28s2t05.flac
     6:27.41       68363276 B   ---   --   ---xx   flac  0.5587  gd1972-09-28s2t06.flac
     4:35.13       48540620 B   ---   --   ---xx   flac  0.5402  gd1972-09-28s2t07.flac
    15:07.51      160114796 B   ---   --   ---xx   flac  0.5458  gd1972-09-28s2t08.flac
    24:35.16      260227676 B   ---   --   ---xx   flac  0.5654  gd1972-09-28s2t09.flac
     5:44.27       60745148 B   ---   --   ---xx   flac  0.5530  gd1972-09-28s2t10.flac
     3:29.16       36905276 B   ---   --   ---xx   flac  0.5889  gd1972-09-28s2t11.flac
    11:04.56      117261356 B   ---   --   ---xx   flac  0.5388  gd1972-09-28s2t12.flac
     8:45.47       92720588 B   ---   --   ---xx   flac  0.5834  gd1972-09-28s2t13.flac
   177:38.47     1880182844 B                            0.5607  (25 files)




More information about the bittorrent mailing list