[bittorrent] gd72-03-26.sbd.mr.dat(48k)l

Automated Mailer noreply-bt.e at etree.org
Sat Aug 6 21:42:08 UTC 2016


Band:           Grateful Dead
Torrent Name:   gd72-03-26.sbd.mr.dat(48k)l
Uploaded by:    greendude
DB Link:        
Details:        http://bt.etree.org/details.php?id=588046

Contact the seeder at http://db.etree.org/greendude

If the link to this show does not work, it was probably removed for
being non-trade-friendly.

Description / text file:
-------------------------
Grateful Dead
Academy of Music
New York, NY
03/26/1972


Source: sbd > master reel > dat (48k)



Set I

01   Greatest Story Ever Told
02   tuning/banter
03   Cold Rain And Snow
04   Chinatown Shuffle
05   tuning
06   Black Throated Wind
07   tuning
08   You Win Again
09   Mr. Charlie
10   tuning
11   Jack Straw
12   tuning
13   Loser
14   tuning/banter
15   Looks Like Rain
16   tuning/banter
17   Big Railroad Blues
18   Big Boss Man
19   tuning/banter
20   Playing In The Band
21   tuning
22   El Paso
23   Good Lovin'


Set II	

01   tuning
02   Truckin' >
03   The Other One  jam > 
04   Drums >
05   The Other One >
06   Me And My Uncle >
07   The Other One >
08   Wharf Rat
09   Sugar Magnolia
10   The Stranger (Two Souls In Communion)
11   Not Fade Away >
12   Goin' Down The Road Feeling Bad >
13   Not Fade Away




Comments:

- This recording has been provided by an anonymous source.
- A significant number of repairs have been made.
- Level adjustments have been made.
- Some high-pitched squeals have been reduced to protect your ears.
- There was a complete dropout in "Truckin'" which was not repairable. A patch of 0.84 seconds has been made
  using a recording of this show from when it was played on Sirius FM by David Gans Christmas 2008.
- Black Throated Wind has some minor problems that couldn't be repaired.
- This has been left at 48k as you'll have a 44.1 version when Dave's Pick's 14 is released.
- This is the first time that this show has circulated as a soundboard.  Set II is outstanding.
- There's a very good review of this show at The Grateful Dead Guide http://deadessays.blogspot.co.uk/2012/03/32672-academy-of-music.html
   I've included a copy for ease of access.
- This show marked the end of an era. The next time that they performed PITB, Donna's infamous howl reared up and stayed
  for a number of years thereafter.
- All files have been tagged.



edited and mastered
SIRMick
February 2015


shntool output:

    length     expanded size    cdr  WAVE problems  fmt   ratio  filename
     5:07.773      59092524 B   cxx   --   ---xx   flac  0.5555  gd1972-03-26s1t01.flac
     2:05.613      24117804 B   cxx   --   ---xx   flac  0.4138  gd1972-03-26s1t02.flac
     6:47.307      78202924 B   cxx   --   ---xx   flac  0.4962  gd1972-03-26s1t03.flac
     2:39.893      30699564 B   cxx   --   ---xx   flac  0.5350  gd1972-03-26s1t04.flac
     1:13.240      14062124 B   cxx   --   ---xx   flac  0.4174  gd1972-03-26s1t05.flac
     6:00.400      69196844 B   cxx   --   ---xx   flac  0.5202  gd1972-03-26s1t06.flac
     1:51.720      21450284 B   cxx   --   ---xx   flac  0.4085  gd1972-03-26s1t07.flac
     5:28.187      63011884 B   cxx   --   ---xx   flac  0.4879  gd1972-03-26s1t08.flac
     3:37.680      41794604 B   cxx   --   ---xx   flac  0.5368  gd1972-03-26s1t09.flac
     1:03.267      12147244 B   cxx   --   ---xx   flac  0.4167  gd1972-03-26s1t10.flac
     4:34.707      52743724 B   cxx   --   ---xx   flac  0.5278  gd1972-03-26s1t11.flac
     1:04.520      12387884 B   cxx   --   ---xx   flac  0.4078  gd1972-03-26s1t12.flac
     6:19.227      72811564 B   cxx   --   ---xx   flac  0.5046  gd1972-03-26s1t13.flac
     1:25.480      16412204 B   cxx   --   ---xx   flac  0.4178  gd1972-03-26s1t14.flac
     7:26.333      85696044 B   cxx   --   ---xx   flac  0.5034  gd1972-03-26s1t15.flac
     1:22.120      15767084 B   cxx   --   ---xx   flac  0.4070  gd1972-03-26s1t16.flac
     4:55.293      56696364 B   cxx   --   ---xx   flac  0.5330  gd1972-03-26s1t17.flac
     4:13.147      48604204 B   cxx   --   ---xx   flac  0.5179  gd1972-03-26s1t18.flac
     2:57.733      34124844 B   cxx   --   ---xx   flac  0.4395  gd1972-03-26s1t19.flac
    11:49.387     136202284 B   cxx   --   ---xx   flac  0.5470  gd1972-03-26s1t20.flac
     1:00.160      11550764 B   cxx   --   ---xx   flac  0.4174  gd1972-03-26s1t21.flac
     5:07.693      59077164 B   cxx   --   ---xx   flac  0.5104  gd1972-03-26s1t22.flac
    17:09.320     197629484 B   cxx   --   ---xx   flac  0.5266  gd1972-03-26s1t23.flac
     0:50.227       9643564 B   cxx   --   ---xx   flac  0.4526  gd1972-03-26s2t01.flac
    10:41.147     123100204 B   cxx   --   ---xx   flac  0.5610  gd1972-03-26s2t02.flac
     6:47.840      78305324 B   cxx   --   ---xx   flac  0.5127  gd1972-03-26s2t03.flac
     3:58.573      45806124 B   cxx   --   ---xx   flac  0.5008  gd1972-03-26s2t04.flac
    23:32.067     271116844 B   cxx   --   ---xx   flac  0.5287  gd1972-03-26s2t05.flac
     3:15.160      37470764 B   cxx   --   ---xx   flac  0.5526  gd1972-03-26s2t06.flac
     5:19.387      61322284 B   cxx   --   ---xx   flac  0.5242  gd1972-03-26s2t07.flac
    10:39.960     122872364 B   cxx   --   ---xx   flac  0.5246  gd1972-03-26s2t08.flac
     7:36.680      87682604 B   cxx   --   ---xx   flac  0.5697  gd1972-03-26s2t09.flac
     8:23.627      96696364 B   cxx   --   ---xx   flac  0.5088  gd1972-03-26s2t10.flac
     5:30.920      63536684 B   cxx   --   ---xx   flac  0.5350  gd1972-03-26s2t11.flac
     7:58.187      91811884 B   cxx   --   ---xx   flac  0.5389  gd1972-03-26s2t12.flac
     2:49.667      32576044 B   cxx   --   ---xx   flac  0.5590  gd1972-03-26s2t13.flac
   202:43.640    2335420464 B                            0.5202  (36 files)



More information about the bittorrent mailing list