[bittorrent] nrps1970-05-02.sbd.reel master.cass.dat.flac16 l

Automated Mailer noreply-bt.e at etree.org
Sat Aug 6 01:06:26 UTC 2016


Band:           New Riders of the Purple Sage
Torrent Name:   nrps1970-05-02.sbd.reel master.cass.dat.flac16 l
Uploaded by:    greendude
DB Link:        
Details:        http://bt.etree.org/details.php?id=588035

Contact the seeder at http://db.etree.org/greendude

If the link to this show does not work, it was probably removed for
being non-trade-friendly.

Description / text file:
-------------------------
NeW Riders Of The Purple Sage
Harpur College
Binghampton, NY
Saturday, May 2, 1970

Source: Soundboard > Reel Master > Cassette > DAT (48k)



01   //Workingman's Blues
02   Brown Eyed Handsome Man
03   Truck Drivin' Man
04   If You Hear Me When I'm Leavin'
05   tuning
06   Whatcha Gonna Do//
07   All I Ever Wanted
08   Henry
09   Lodi
10   Weir intro and tuning
11   Saw Mill *
12   The Race Is On *
13   Mama Tried *
14   Me And My Uncle *
15   The Weight



John 'Marmaduke' Dawson - rhythm guitar, vocals
David Nelson - lead guitar, vocals
David Torbert - bass, vocals
Jerry Garcia - pedal steel guitar
Mickey Hart - drums

guest:

Bob Weir - guitar, vocals *



Notes:

- This has been provided by an anonymous source. 
- There were several nasty high-pitched squeals caused by feedback, which have been removed and some level adjustments have been made.
- Although the start of "Workingman's Blues" is cut this is the first time that any of it has circulated.  It's completely missing from the FM source.



edited and mastered
SIRMick
March 2013


shntool ouput:

    length     expanded size    cdr  WAVE problems  fmt   ratio  filename
     3:57.10       41830364 B   ---   --   ---xx   flac  0.5376  nrps1970-05-02t01.flac
     4:33.57       48291308 B   ---   --   ---xx   flac  0.5491  nrps1970-05-02t02.flac
     3:41.59       39123212 B   ---   --   ---xx   flac  0.5263  nrps1970-05-02t03.flac
     4:57.40       52484924 B   ---   --   ---xx   flac  0.5309  nrps1970-05-02t04.flac
     1:19.14       13968572 B   ---   --   ---xx   flac  0.4562  nrps1970-05-02t05.flac
     4:39.64       49366172 B   ---   --   ---xx   flac  0.5322  nrps1970-05-02t06.flac
     7:19.31       77512556 B   ---   --   ---xx   flac  0.4980  nrps1970-05-02t07.flac
     4:17.38       45424220 B   ---   --   ---xx   flac  0.5289  nrps1970-05-02t08.flac
     4:28.54       47402252 B   ---   --   ---xx   flac  0.5387  nrps1970-05-02t09.flac
     1:26.48       15283340 B   ---   --   ---xx   flac  0.4487  nrps1970-05-02t10.flac
     3:27.65       36667724 B   ---   --   ---xx   flac  0.5245  nrps1970-05-02t11.flac
     2:10.26       22993196 B   ---   --   ---xx   flac  0.5243  nrps1970-05-02t12.flac
     3:27.51       36634796 B   ---   --   ---xx   flac  0.5279  nrps1970-05-02t13.flac
     3:40.13       38838620 B   ---   --   ---xx   flac  0.5432  nrps1970-05-02t14.flac
     6:33.29       69393452 B   ---   --   ---xx   flac  0.5364  nrps1970-05-02t15.flac
    60:00.74      635214708 B                            0.5259  (15 files)




More information about the bittorrent mailing list