[bittorrent] gd72-04-17.sbd.mr.dat (48k)l

Automated Mailer noreply-bt.e at etree.org
Sat Aug 6 01:00:45 UTC 2016


Band:           Grateful Dead
Torrent Name:   gd72-04-17.sbd.mr.dat (48k)l
Uploaded by:    greendude
DB Link:        
Details:        http://bt.etree.org/details.php?id=588034

Contact the seeder at http://db.etree.org/greendude

If the link to this show does not work, it was probably removed for
being non-trade-friendly.

Description / text file:
-------------------------
Grateful Dead
Tivolis Koncertsal
Copenhagen, Denmark
04/17/1972

Source: sbd > 14" 16 track Master Reel @15ips > DAT (48k)


Set I

01   Cold Rain And Snow
02   Me And Bobby McGee
03   Chinatown Shuffle
04   China Cat Sunflower >
05   I Know You Rider
06   Jack Straw
07   He's Gone
08   Next Time You See Me
09   Black Throated Wind


Set II

01   Casey Jones
02   Playing In The Band
03   Sugaree
04   One More Saturday Night
05   It Hurts Me Too
06   Ramble On Rose
07   Mexican Hat Dance tuning
08   El Paso
09   Big Railroad Blues
10   Truckin'


Set III

01   Dark Star >
02   Sugar Magnolia >
03   Caution (Do Not Stop On The Tracks) > 
04   Johnny B Goode



Comments:

- This version has been provided by an anonymous source.
- Level adjustments have been made.
- Transitions have been cleaned up and a few artifacts removed.
- One of the most exquisite shows they ever played, which has previously only been available in 44.1 flavour.
  This time you get the full 48.  Enjoy the extra hertzes.
- The dynamic range of the official release is 9 but for this it is 15. 
- All files have been tagged.



edited and mastered
SIRMick
February 2015



shntool ouput:

    length     expanded size    cdr  WAVE problems  fmt   ratio  filename
     5:31.147      63580204 B   cxx   --   ---xx   flac  0.4652  gd72-04-17s1t01.flac
     5:57.120      68567084 B   cxx   --   ---xx   flac  0.4605  gd72-04-17s1t02.flac
     2:48.600      32371244 B   cxx   --   ---xx   flac  0.4793  gd72-04-17s1t03.flac
     6:04.267      69939244 B   cxx   --   ---xx   flac  0.4806  gd72-04-17s1t04.flac
     5:59.653      69053484 B   cxx   --   ---xx   flac  0.4791  gd72-04-17s1t05.flac
     4:46.640      55034924 B   cxx   --   ---xx   flac  0.4831  gd72-04-17s1t06.flac
     6:54.080      79503404 B   cxx   --   ---xx   flac  0.4692  gd72-04-17s1t07.flac
     5:00.307      57658924 B   cxx   --   ---xx   flac  0.4645  gd72-04-17s1t08.flac
     6:41.427      77073964 B   cxx   --   ---xx   flac  0.4703  gd72-04-17s1t09.flac
     5:51.267      67443244 B   cxx   --   ---xx   flac  0.4805  gd72-04-17s2t01.flac
     9:22.133     107929644 B   cxx   --   ---xx   flac  0.4862  gd72-04-17s2t02.flac
     6:40.867      76966444 B   cxx   --   ---xx   flac  0.4472  gd72-04-17s2t03.flac
     4:44.987      54717484 B   cxx   --   ---xx   flac  0.5085  gd72-04-17s2t04.flac
     7:16.600      83827244 B   cxx   --   ---xx   flac  0.4323  gd72-04-17s2t05.flac
     5:53.747      67919404 B   cxx   --   ---xx   flac  0.4702  gd72-04-17s2t06.flac
     1:10.733      13580844 B   cxx   --   ---xx   flac  0.3588  gd72-04-17s2t07.flac
     4:38.987      53565484 B   cxx   --   ---xx   flac  0.4453  gd72-04-17s2t08.flac
     3:26.213      39593004 B   cxx   --   ---xx   flac  0.4980  gd72-04-17s2t09.flac
    11:01.280     126965804 B   cxx   --   ---xx   flac  0.5070  gd72-04-17s2t10.flac
    30:58.800     356889644 B   cxx   --   ---xx   flac  0.4339  gd72-04-17s3t01.flac
     6:55.413      79759404 B   cxx   --   ---xx   flac  0.4820  gd72-04-17s3t02.flac
    23:37.720     272202284 B   cxx   --   ---xx   flac  0.4676  gd72-04-17s3t03.flac
     4:17.440      49428524 B   cxx   --   ---xx   flac  0.4976  gd72-04-17s3t04.flac
   175:39.427    2023570932 B                            0.4663  (23 files)



More information about the bittorrent mailing list