[bittorrent] gd72-03-25.sbd.mr.dat(48k)l

Automated Mailer noreply-bt.e at etree.org
Sat Aug 6 00:57:36 UTC 2016


Band:           Grateful Dead
Torrent Name:   gd72-03-25.sbd.mr.dat(48k)l
Uploaded by:    greendude
DB Link:        
Details:        http://bt.etree.org/details.php?id=588033

Contact the seeder at http://db.etree.org/greendude

If the link to this show does not work, it was probably removed for
being non-trade-friendly.

Description / text file:
-------------------------
Grateful Dead
Academy of Music
New York, NY
03/25/72


Source: sbd > master reel > dat (48k)



Set I

01   //Intro > Bo Diddley >
02   I'm A Man >
03   I've Seen Them All >
04   Jam 
05   tuning/banter
06   Take It All Off
07   Mona
08   tuning
09   You Know I Love You So (Wo Wow Hey Hey) >
10   Slow Blues (unknown title) >
11   Pollution (with false start)
12   Say Boss Man
13   Jam
14   Bo Diddley-Itis (?)
15   Outro


Set II

01   tuning
02   How Sweet It Is (To Be Loved By You)
03   tuning
04   Are You Lonely For Me Baby?
05   tuning
06   Next Time You See Me
07   tuning
08   Brown Eyed Women
09   tuning
10   Smokestack Lightnin'
11   tuning
12   Sittin' On Top Of The World
13   tuning
14   Sugaree
15   tuning
16   Looks Like Rain
17   tuning
18   Bertha


Set III


01   Mr. Charlie
02   Black Throated Wind
03   tuning
04   Deal
05   tuning
06   Playing In The Band
07   broken string/tuning
08   Turn On Your Love Light
09   Casey Jones







Notes:

- This version has been provided by an anonymous source
- For the first time, a soundboard of the whole of this all round wonderful show.
  You need to crank up the 1st set to 11!
- Level adjustments made
- Various artifacts removed and a number of other repairs made.
- Several patches of heavy feedback squeal removed from Set I to protect your ears :-)
- This has always been shown as a 2 set show but it is, in fact, 3 sets.  After "Bertha" Garcia
  says 'We're gonna take a break for a little while  and come back later though" and Phil? says
  You folks party on for a while"
- Deadlists has "Good Lovin'" as being played after PITB but there isn't any cut between it
  and "Love Light".  It would, therefore, seem that it wasn't played.
- During the fixing of the broken string Garcia says "99 man 99, 75 won't do either. That's obscure isn't it"
- All files have been tagged



edited and mastered
SIRMick
February 2015


shntool output:

    length     expanded size    cdr  WAVE problems  fmt   ratio  filename
     4:07.23       43624940 B   ---   --   ---xx   flac  0.5175  gd1972-03-25s1t01.flac
     5:59.70       63492284 B   ---   --   ---xx   flac  0.4816  gd1972-03-25s1t02.flac
     7:40.28       81209900 B   ---   --   ---xx   flac  0.4636  gd1972-03-25s1t03.flac
     9:30.19      100592732 B   ---   --   ---xx   flac  0.5280  gd1972-03-25s1t04.flac
     1:37.27       17174348 B   ---   --   ---xx   flac  0.4207  gd1972-03-25s1t05.flac
     4:11.30       44347004 B   ---   --   ---xx   flac  0.4822  gd1972-03-25s1t06.flac
     2:34.61       27309116 B   ---   --   ---xx   flac  0.5316  gd1972-03-25s1t07.flac
     1:04.49       11404892 B   ---   --   ---xx   flac  0.4203  gd1972-03-25s1t08.flac
    12:10.36      128856716 B   ---   --   ---xx   flac  0.4678  gd1972-03-25s1t09.flac
     5:29.05       58047404 B   ---   --   ---xx   flac  0.4766  gd1972-03-25s1t10.flac
     6:23.05       67573004 B   ---   --   ---xx   flac  0.5187  gd1972-03-25s1t11.flac
     4:25.19       46790732 B   ---   --   ---xx   flac  0.4997  gd1972-03-25s1t12.flac
     4:22.69       46379132 B   ---   --   ---xx   flac  0.5160  gd1972-03-25s1t13.flac
     6:14.02       65978348 B   ---   --   ---xx   flac  0.5202  gd1972-03-25s1t14.flac
     1:18.72       13928588 B   ---   --   ---xx   flac  0.4333  gd1972-03-25s1t15.flac
     0:48.53        8591900 B   ---   --   ---xx   flac  0.4291  gd1972-03-25s2t01.flac
     6:50.19       72368732 B   ---   --   ---xx   flac  0.5768  gd1972-03-25s2t02.flac
     2:08.62       22725068 B   ---   --   ---xx   flac  0.4187  gd1972-03-25s2t03.flac
     6:53.73       73024940 B   ---   --   ---xx   flac  0.5435  gd1972-03-25s2t04.flac
     2:45.16       29143676 B   ---   --   ---xx   flac  0.4241  gd1972-03-25s2t05.flac
     5:16.14       55775372 B   ---   --   ---xx   flac  0.5553  gd1972-03-25s2t06.flac
     1:59.32       21066908 B   ---   --   ---xx   flac  0.4116  gd1972-03-25s2t07.flac
     4:38.24       49095692 B   ---   --   ---xx   flac  0.5319  gd1972-03-25s2t08.flac
     1:41.59       17955212 B   ---   --   ---xx   flac  0.4086  gd1972-03-25s2t09.flac
    13:01.71      137935436 B   ---   --   ---xx   flac  0.5374  gd1972-03-25s2t10.flac
     1:26.10       15193964 B   ---   --   ---xx   flac  0.4239  gd1972-03-25s2t11.flac
     3:27.21       36564236 B   ---   --   ---xx   flac  0.5476  gd1972-03-25s2t12.flac
     1:53.25       19992044 B   ---   --   ---xx   flac  0.4171  gd1972-03-25s2t13.flac
     7:02.18       74483180 B   ---   --   ---xx   flac  0.5288  gd1972-03-25s2t14.flac
     2:20.01       24698396 B   ---   --   ---xx   flac  0.4181  gd1972-03-25s2t15.flac
     6:59.09       73932812 B   ---   --   ---xx   flac  0.5193  gd1972-03-25s2t16.flac
     1:09.34       12251612 B   ---   --   ---xx   flac  0.4118  gd1972-03-25s2t17.flac
     5:46.61       61177916 B   ---   --   ---xx   flac  0.5560  gd1972-03-25s2t18.flac
     4:35.03       48517100 B   ---   --   ---xx   flac  0.5368  gd1972-03-25s3t01.flac
     6:00.30       63574604 B   ---   --   ---xx   flac  0.5444  gd1972-03-25s3t02.flac
     1:55.24       20342492 B   ---   --   ---xx   flac  0.3940  gd1972-03-25s3t03.flac
     5:56.13       62829020 B   ---   --   ---xx   flac  0.5488  gd1972-03-25s3t04.flac
     1:45.58       18658460 B   ---   --   ---xx   flac  0.4121  gd1972-03-25s3t05.flac
     9:20.64       98934572 B   ---   --   ---xx   flac  0.5440  gd1972-03-25s3t06.flac
     5:12.26       55097996 B   ---   --   ---xx   flac  0.4020  gd1972-03-25s3t07.flac
    22:06.48      234019340 B   ---   --   ---xx   flac  0.5234  gd1972-03-25s3t08.flac
     6:24.66       67892876 B   ---   --   ---xx   flac  0.5555  gd1972-03-25s3t09.flac
   216:36.24     2292552696 B                            0.5085  (42 files)



More information about the bittorrent mailing list