[bittorrent] gd72-03-23.sbd.mr.dat (48k)l

Automated Mailer noreply-bt.e at etree.org
Fri Aug 5 10:24:32 UTC 2016


Band:           Grateful Dead
Torrent Name:   gd72-03-23.sbd.mr.dat (48k)l
Uploaded by:    greendude
DB Link:        
Details:        http://bt.etree.org/details.php?id=588025

Contact the seeder at http://db.etree.org/greendude

If the link to this show does not work, it was probably removed for
being non-trade-friendly.

Description / text file:
-------------------------
Grateful Dead
Academy of Music
New York, NY
03/23/1972


Source: sbd > master reel > dat (48k)



Set I	

01   China Cat Sunflower >
02   I Know You Rider
03   tuning
04   Black Throated Wind
05   Chinatown Shuffle
06   Brown Eyed Women
07   tuning
08   Beat It On Down The Line
09   Cumberland Blues
10   tuning
11    Looks Like Rain
12   Mr. Charlie 
13   tuning
14   Tennessee Jed
15   tuning
16   El Paso
17   You Win Again
18   tuning/banter
19   Jack Straw
[missing]Next Time You See Me
20   Playing In The Band
21   tuning
22   Comes A Time
23   tuning
24   Me And Bobby McGee
25   tuning
26   Casey Jones


Set II

01   tuning
02   Truckin'
03   tuning
04   Ramble On Rose
05   tuning/banter
06   The Stranger (Two Souls In Communion)
07   tuning
08   Mexicali Blues
09   tuning
10   Dark Star
11   Big Boss Man
12   tuning/banter
13   Not Fade Away >
14   Goin' Down The Road Feeling Bad >
15   Not Fade Away

encore

[missing]Sugar Magnolia



Notes:

- This version has been provided by an anonymous source
- Another very clean recording.  Just a few pops and clicks removed, and a couple of repairs were necessary near
  the end of Set II.
- Level adjustments have been made.
- High pitched feedback squeals have been reduced to protect your ears.
- All files have been tagged



edited and mastered
SIRMick
February 2015


shntool output:

    length     expanded size    cdr  WAVE problems  fmt   ratio  filename
     6:00.02       63508748 B   ---   --   ---xx   flac  0.5597  gd1972-03-23s1t01.flac
     5:18.01       56097596 B   ---   --   ---xx   flac  0.5482  gd1972-03-23s1t02.flac
     1:43.54       18296252 B   ---   --   ---xx   flac  0.4337  gd1972-03-23s1t03.flac
     6:44.14       71298572 B   ---   --   ---xx   flac  0.5410  gd1972-03-23s1t04.flac
     2:48.24       29691692 B   ---   --   ---xx   flac  0.5547  gd1972-03-23s1t05.flac
     4:57.50       52508444 B   ---   --   ---xx   flac  0.5262  gd1972-03-23s1t06.flac
     1:23.25       14700044 B   ---   --   ---xx   flac  0.4181  gd1972-03-23s1t07.flac
     2:55.41       30966476 B   ---   --   ---xx   flac  0.5627  gd1972-03-23s1t08.flac
     6:42.11       70938716 B   ---   --   ---xx   flac  0.5566  gd1972-03-23s1t09.flac
     1:51.56       19712156 B   ---   --   ---xx   flac  0.4285  gd1972-03-23s1t10.flac
     7:47.26       82439996 B   ---   --   ---xx   flac  0.4984  gd1972-03-23s1t11.flac
     3:44.28       39579500 B   ---   --   ---xx   flac  0.5410  gd1972-03-23s1t12.flac
     1:59.24       21048092 B   ---   --   ---xx   flac  0.4163  gd1972-03-23s1t13.flac
     7:05.15       75005324 B   ---   --   ---xx   flac  0.5404  gd1972-03-23s1t14.flac
     1:52.64       19907372 B   ---   --   ---xx   flac  0.4269  gd1972-03-23s1t15.flac
     4:51.69       51494732 B   ---   --   ---xx   flac  0.5196  gd1972-03-23s1t16.flac
     3:30.21       37093436 B   ---   --   ---xx   flac  0.5198  gd1972-03-23s1t17.flac
     2:06.03       22233500 B   ---   --   ---xx   flac  0.4215  gd1972-03-23s1t18.flac
     5:18.33       56172860 B   ---   --   ---xx   flac  0.5441  gd1972-03-23s1t19.flac
     9:50.05      104087804 B   ---   --   ---xx   flac  0.5674  gd1972-03-23s1t20.flac
     1:20.42       14210828 B   ---   --   ---xx   flac  0.4323  gd1972-03-23s1t21.flac
     7:37.16       80652476 B   ---   --   ---xx   flac  0.4893  gd1972-03-23s1t22.flac
     1:02.68       11096780 B   ---   --   ---xx   flac  0.4099  gd1972-03-23s1t23.flac
     5:49.11       61589516 B   ---   --   ---xx   flac  0.5368  gd1972-03-23s1t24.flac
     1:14.00       13053644 B   ---   --   ---xx   flac  0.4365  gd1972-03-23s1t25.flac
     5:46.09       61055612 B   ---   --   ---xx   flac  0.5602  gd1972-03-23s1t26.flac
     2:49.36       29896316 B   ---   --   ---xx   flac  0.4301  gd1972-03-23s2t01.flac
    10:50.36      114744716 B   ---   --   ---xx   flac  0.5669  gd1972-03-23s2t02.flac
     1:12.44       12804332 B   ---   --   ---xx   flac  0.4522  gd1972-03-23s2t03.flac
     5:48.40       61481324 B   ---   --   ---xx   flac  0.5554  gd1972-03-23s2t04.flac
     3:06.60       32951564 B   ---   --   ---xx   flac  0.4334  gd1972-03-23s2t05.flac
     6:34.25       69560444 B   ---   --   ---xx   flac  0.5315  gd1972-03-23s2t06.flac
     2:22.46       25157036 B   ---   --   ---xx   flac  0.4344  gd1972-03-23s2t07.flac
     3:11.18       33734780 B   ---   --   ---xx   flac  0.5637  gd1972-03-23s2t08.flac
     4:10.54       44227052 B   ---   --   ---xx   flac  0.4302  gd1972-03-23s2t09.flac
    23:14.70      246066284 B   ---   --   ---xx   flac  0.5313  gd1972-03-23s2t10.flac
     5:46.59       61173212 B   ---   --   ---xx   flac  0.5376  gd1972-03-23s2t11.flac
     3:56.00       41630444 B   ---   --   ---xx   flac  0.4153  gd1972-03-23s2t12.flac
     5:29.06       58049756 B   ---   --   ---xx   flac  0.5523  gd1972-03-23s2t13.flac
     7:23.71       78312236 B   ---   --   ---xx   flac  0.5389  gd1972-03-23s2t14.flac
     3:15.63       34546220 B   ---   --   ---xx   flac  0.5529  gd1972-03-23s2t15.flac
   200:33.65     2122775884 B                            0.5225  (41 files)



More information about the bittorrent mailing list