[bittorrent] gd72-03-22.sbd.mr.dat(48k)l

Automated Mailer noreply-bt.e at etree.org
Fri Aug 5 10:21:29 UTC 2016


Band:           Grateful Dead
Torrent Name:   gd72-03-22.sbd.mr.dat(48k)l
Uploaded by:    greendude
DB Link:        
Details:        http://bt.etree.org/details.php?id=588024

Contact the seeder at http://db.etree.org/greendude

If the link to this show does not work, it was probably removed for
being non-trade-friendly.

Description / text file:
-------------------------
Grateful Dead
Academy of Music
New York, NY
03/22/1972


Source: sbd > master reel > dat (48k)

 
Set I

01   Greatest Story Ever Told
02   Deal
03   Mr. Charlie
04   Black Throated Wind
05   China Cat Sunflower >
06   I Know You Rider
07   Mexicali Blues
08   Tennessee Jed
09   The Stranger (Two Souls In Communion)
10   Me And Bobby McGee
11   monitor problems
12   Los//er
13   tuning
14   Big Boss Man
15   tuning
16   Jack Straw
17   //Big Railroad Blues
18   Looks Like Rain
19   Casey Jones


Set II	

01   Me And My Uncle
02   Sugaree
03   Chinatown Shuffle
04   tuning
05   Playing In The Band
06   It Hurts Me Too
07   Brown Eyed Women
08   El Paso
09   Brokedown Palace
10   Sugar Magnolia >
11   Caution (Do Not Stop On Tracks) >
12   Jam >
13   Uncle John's Band

encore	

[missing] One More Saturday Night



Notes:

- this version has been provided by an anonymous source
- level adjustments and a number of repairs made
- "Loser" has a splice around 2:52.
- The start of is "Big Railroad Blues" slightly clipped
- This will be the first time you'll hear almost the whole of this show in lossless soundboard quality.  A few songs from Set II were
  released on the bonus disc for "Rockin' The Rhein" However, what is on the bonus disc doesn't include the PITB from this show.
  It's a completely different performance.  Also "Caution" has around 28 seconds missing.
- A comparison of the mp3s from the "Tapers Section" at dead.net with this source shows that there is a substantial amount of
  tuning that isn't included in this recording.
- all files are tagged




edited and mastered
SIRMick
February 2015


shntool output:

    length     expanded size    cdr  WAVE problems  fmt   ratio  filename
     5:14.33       55467260 B   ---   --   ---xx   flac  0.5621  gd1972-03-22s1t01.flac
     6:08.53       65039900 B   ---   --   ---xx   flac  0.5419  gd1972-03-22s1t02.flac
     3:57.24       41863292 B   ---   --   ---xx   flac  0.5470  gd1972-03-22s1t03.flac
     6:23.23       67615340 B   ---   --   ---xx   flac  0.5273  gd1972-03-22s1t04.flac
     5:52.40       62186924 B   ---   --   ---xx   flac  0.5457  gd1972-03-22s1t05.flac
     5:44.09       60702812 B   ---   --   ---xx   flac  0.5338  gd1972-03-22s1t06.flac
     4:23.42       46492028 B   ---   --   ---xx   flac  0.5512  gd1972-03-22s1t07.flac
     7:43.44       81776732 B   ---   --   ---xx   flac  0.5422  gd1972-03-22s1t08.flac
     6:52.06       72690956 B   ---   --   ---xx   flac  0.5245  gd1972-03-22s1t09.flac
     5:29.13       58066220 B   ---   --   ---xx   flac  0.5489  gd1972-03-22s1t10.flac
     1:26.12       15198668 B   ---   --   ---xx   flac  0.4508  gd1972-03-22s1t11.flac
     6:18.61       66822716 B   ---   --   ---xx   flac  0.5341  gd1972-03-22s1t12.flac
     1:31.69       16214732 B   ---   --   ---xx   flac  0.4432  gd1972-03-22s1t13.flac
     5:49.43       61664780 B   ---   --   ---xx   flac  0.5507  gd1972-03-22s1t14.flac
     2:08.59       22718012 B   ---   --   ---xx   flac  0.4460  gd1972-03-22s1t15.flac
     4:56.57       52348508 B   ---   --   ---xx   flac  0.5496  gd1972-03-22s1t16.flac
     3:52.03       40931900 B   ---   --   ---xx   flac  0.5757  gd1972-03-22s1t17.flac
     7:41.01       81322796 B   ---   --   ---xx   flac  0.5061  gd1972-03-22s1t18.flac
     5:58.49       63266492 B   ---   --   ---xx   flac  0.5708  gd1972-03-22s1t19.flac
     3:06.60       32951564 B   ---   --   ---xx   flac  0.5405  gd1972-03-22s2t01.flac
     6:37.14       70063772 B   ---   --   ---xx   flac  0.5200  gd1972-03-22s2t02.flac
     2:47.69       29621132 B   ---   --   ---xx   flac  0.5732  gd1972-03-22s2t03.flac
     1:31.58       16188860 B   ---   --   ---xx   flac  0.4468  gd1972-03-22s2t04.flac
    11:22.56      120436556 B   ---   --   ---xx   flac  0.5539  gd1972-03-22s2t05.flac
     8:32.11       90342716 B   ---   --   ---xx   flac  0.5143  gd1972-03-22s2t06.flac
     4:49.20       51026684 B   ---   --   ---xx   flac  0.5183  gd1972-03-22s2t07.flac
     4:41.51       49688396 B   ---   --   ---xx   flac  0.5124  gd1972-03-22s2t08.flac
     5:48.57       61521308 B   ---   --   ---xx   flac  0.4992  gd1972-03-22s2t09.flac
     7:22.59       78107612 B   ---   --   ---xx   flac  0.5857  gd1972-03-22s2t10.flac
    19:03.69      201787532 B   ---   --   ---xx   flac  0.5670  gd1972-03-22s2t11.flac
     6:22.02       67389548 B   ---   --   ---xx   flac  0.5241  gd1972-03-22s2t12.flac
     7:51.67       83242028 B   ---   --   ---xx   flac  0.5644  gd1972-03-22s2t13.flac
   187:31.34     1984757776 B                            0.5398  (32 files)




More information about the bittorrent mailing list