[bittorrent] gd69-xx-xx.practise.sbd.mr.dat(48k) l

Automated Mailer noreply-bt.e at etree.org
Fri Aug 5 01:29:24 UTC 2016


Band:           Grateful Dead
Torrent Name:   gd69-xx-xx.practise.sbd.mr.dat(48k) l
Uploaded by:    greendude
DB Link:        
Details:        http://bt.etree.org/details.php?id=588013

Contact the seeder at http://db.etree.org/greendude

If the link to this show does not work, it was probably removed for
being non-trade-friendly.

Description / text file:
-------------------------
Grateful Dead
Avalon Ballroom
San Francisco, CA
either 01/23/69 or 04/03/1969

Practice Session


Source: sbd > cassette master > dat(48k)



01   //The//Other One *
02   Doin' That Rag
03   discussion regarding monitors
04   Doin' That Rag x 2
05   Doin' That Rag
06   Cosmic//Charlie
07   Born Cross-Eyed > banter
08   Dupree's Diamond Blues
09   The Other One



Notes:

- This version has been provided by an anonymous source.
- This track has some tape degradation. About 14 seconds have been removed as they are completely unlistenable.
  The splice is at 1:37.  Also a number of repairs and level adjustments have also been made. *
- All files are tagged.


edited and mastered
SIRMick
January 2015


shntool output:

    length     expanded size    cdr  WAVE problems  fmt   ratio  filename
    12:05.42      127988828 B   ---   --   ---xx   flac  0.5876  gd1969-xx-xxt01.flac
     4:03.34       42945212 B   ---   --   ---xx   flac  0.5676  gd1969-xx-xxt02.flac
     1:22.60       14605964 B   ---   --   ---xx   flac  0.5069  gd1969-xx-xxt03.flac
     4:48.05       50815004 B   ---   --   ---xx   flac  0.5699  gd1969-xx-xxt04.flac
     7:40.69       81306332 B   ---   --   ---xx   flac  0.5751  gd1969-xx-xxt05.flac
     4:14.65       44958524 B   ---   --   ---xx   flac  0.5653  gd1969-xx-xxt06.flac
     4:09.60       44064764 B   ---   --   ---xx   flac  0.5802  gd1969-xx-xxt07.flac
     5:15.14       55598972 B   ---   --   ---xx   flac  0.5765  gd1969-xx-xxt08.flac
    21:43.00      229849244 B   ---   --   ---xx   flac  0.5932  gd1969-xx-xxt09.flac
    65:23.49      692132844 B                            0.5809  (9 files)



More information about the bittorrent mailing list