[bittorrent] gd69-07-11.sbd.msc.dat (44k) l

Automated Mailer noreply-bt.e at etree.org
Fri Aug 5 01:21:33 UTC 2016


Band:           Grateful Dead
Torrent Name:   gd69-07-11.sbd.msc.dat (44k) l
Uploaded by:    greendude
DB Link:        
Details:        http://bt.etree.org/details.php?id=588011

Contact the seeder at http://db.etree.org/greendude

If the link to this show does not work, it was probably removed for
being non-trade-friendly.

Description / text file:
-------------------------
Grateful Dead
New York State Pavilion,
Flushing Meadows Park,
Queens, New York, NY
07/11/1969


Source: Sbd > Master Casette > DAT (44k)


01   banter/tuning
02   The Story Of A Brick
03   Dupree's Diamond Blues >
04   Dire Wolf
05   Hard To Handle 
06   Silver Threads And Golden Needles
07   Casey Jones
08   Sittin' On Top Of The World
09   Big Boss Man
10   Mama Tried
11   High Time//
[missing] Alligator
12   //Drums >
13   Jam > 
14   The Other One > 
15   Death Don't Have No Mercy > 
16   Turn On Your Love Light//



Comments:

- This recording has been provided by an anonymous source.
- There were lots of small dropouts which have been caused through tape degradation.  Most of them have been repaired/
- A repeated section of about 2.3 seconds has been removed from "Love Light"
- Level adjustments have been made.
- This appears to be the same recording that Seth Kaplan seeded in March 2014 (shnid 127258) but as far as I can tell
  he didn't make any repairs, and the repeated section wasn't removed.
- All files have been tagged.




edited and mastered
SIRMick
February 2015


shntool output:

    length     expanded size    cdr  WAVE problems  fmt   ratio  filename
     1:53.20       19980284 B   ---   --   ---xx   flac  0.5453  gd1969-07-11t01.flac
     2:47.04       29468252 B   ---   --   ---xx   flac  0.5577  gd1969-07-11t02.flac
     4:01.58       42648860 B   ---   --   ---xx   flac  0.5634  gd1969-07-11t03.flac
     3:16.57       34708508 B   ---   --   ---xx   flac  0.5623  gd1969-07-11t04.flac
     4:17.47       45445388 B   ---   --   ---xx   flac  0.5116  gd1969-07-11t05.flac
     3:35.70       38090684 B   ---   --   ---xx   flac  0.4850  gd1969-07-11t06.flac
     6:00.07       63520508 B   ---   --   ---xx   flac  0.5368  gd1969-07-11t07.flac
     3:22.04       35642252 B   ---   --   ---xx   flac  0.5475  gd1969-07-11t08.flac
     5:51.53       62041100 B   ---   --   ---xx   flac  0.5149  gd1969-07-11t09.flac
     3:14.74       34395692 B   ---   --   ---xx   flac  0.5031  gd1969-07-11t10.flac
     3:25.58       36298460 B   ---   --   ---xx   flac  0.4384  gd1969-07-11t11.flac
     5:05.35       53884364 B   ---   --   ---xx   flac  0.4994  gd1969-07-11t12.flac
    14:05.64      149208572 B   ---   --   ---xx   flac  0.5324  gd1969-07-11t13.flac
     8:02.15       85060124 B   ---   --   ---xx   flac  0.5417  gd1969-07-11t14.flac
    10:50.64      114810572 B   ---   --   ---xx   flac  0.4826  gd1969-07-11t15.flac
     8:58.48       95016140 B   ---   --   ---xx   flac  0.5337  gd1969-07-11t16.flac
    88:50.03      940219760 B                            0.5211  (16 files)




More information about the bittorrent mailing list