[bittorrent] gd66-xx.xx.acidtest3.sbd.mr.dat(48k)d

Automated Mailer noreply-bt.e at etree.org
Thu Aug 4 01:37:19 UTC 2016


Band:           Grateful Dead
Torrent Name:   gd66-xx.xx.acidtest3.sbd.mr.dat(48k)d
Uploaded by:    greendude
DB Link:        
Details:        http://bt.etree.org/details.php?id=588004

Contact the seeder at http://db.etree.org/greendude

If the link to this show does not work, it was probably removed for
being non-trade-friendly.

Description / text file:
-------------------------
Grateful Dead
Unknown Venue *
xx/xx/1966


Source: sbd > 10 inch Master Reels @ 15 ips 1/2 track > Dat (48k)

01   Indecipherable talking over pa//
02   jam, nothing recognisable as a tune.  Mostly Phil and Billy (1)
03   possibly part of a soundcheck (2)
04   jam, similar to track 2
05   jam, similar to track 2
06   Phil bass jam > talking


Notes:

- This version has been provided by an anonymous source.
- The reel is labelled "1966 Acid Test #3" *
  The 3rd Acid Test of 1966 took place 21–23 January, Trips Festival at Longshoreman's Hall, San Francisco, CA
- Lots of talking going on over pa but you can't really hear what's being said (1)
- The speaking is much clearer.   Garcia says "I'm really tired of playing in a warehouse though" and  "As long as
  they jump up and down, what the fuck" (2)
- All files are tagged.


edited and mastered
SIRMick
January 2015


shntool output:

    length     expanded size    cdr  WAVE problems  fmt   ratio  filename
     0:58.42       10330028 B   ---   --   ---xx   flac  0.3343  gd1966-xx-xxt01.flac
    12:37.31      133607756 B   ---   --   ---xx   flac  0.3699  gd1966-xx-xxt02.flac
     2:14.56       23769356 B   ---   --   ---xx   flac  0.3380  gd1966-xx-xxt03.flac
     1:23.23       14695340 B   ---   --   ---xx   flac  0.3429  gd1966-xx-xxt04.flac
     2:29.06       26297756 B   ---   --   ---xx   flac  0.3865  gd1966-xx-xxt05.flac
     5:27.37       57769868 B   ---   --   ---xx   flac  0.3659  gd1966-xx-xxt06.flac
    25:10.45      266470104 B                            0.3649  (6 files)




More information about the bittorrent mailing list