[bittorrent] gd66-05-19.s1.sbd.mr.dat (48k)d

Automated Mailer noreply-bt.e at etree.org
Thu Aug 4 01:19:30 UTC 2016


Band:           Grateful Dead
Torrent Name:   gd66-05-19.s1.sbd.mr.dat (48k)d
Uploaded by:    greendude
DB Link:        
Details:        http://bt.etree.org/details.php?id=588001

Contact the seeder at http://db.etree.org/greendude

If the link to this show does not work, it was probably removed for
being non-trade-friendly.

Description / text file:
-------------------------
Grateful Dead
Avalon Ballroom
San Francisco, CA
05/19/1966


Source: sbd > 10 inch Master Reels @ 15 ips 1/2 track > Dat (48k)

Set I


01   //Beat It On Down The Line
02   Standing On The Corner
03   Mindbender
04   It Hurts Me Too
05   Viola Lee Blues
06   I Know You Rider
07   It's A Sin
08   Sick And Tired
09   Cream Puff War//




Notes:

- This version has been provided by an anonymous source.
- The channels were reversed, this has been corrected.
- Level adjustments have been made.
- All files are tagged


Comments:

The way that this sounds is more faithfull to Bear's original mix than the Miller seed shnid 106883.


>From Grateful Dead Guide (deadessays.blogspot.co.uk)

There was a dramatic shift in Bear's production technique by the 3/12/66 show.  He mentioned a  synesthetic experience of seeing music circulating: “My knowledge of the true nature of sound dates back  to…one of the rehearsals we had in the house in Watts, when I actually saw sound coming out of the  speakers. It was total synesthesia… It was just a unique experience. And it so completely blew my mind…I  went around and inspected it very carefully… And that became the foundation for all the sound work that  I’ve done.”
http://www.thebear.org/musicintro.html.
   
Whether it was due to this experience or not, sometime in February or early March, Bear changed the way  he mixed the Dead:  “I recorded the vocals in the left channel and the instruments in the right, Beatles  style.” That remains the basic premise in every Bear production setup from 3/12 through July.


edited and mastered
SIRMick
January 2015


shntool output:

    length     expanded size    cdr  WAVE problems  fmt   ratio  filename
     2:34.23       27219740 B   ---   --   ---xx   flac  0.5497  gd1966-05-19t01.flac
     3:45.55       39819404 B   ---   --   ---xx   flac  0.5067  gd1966-05-19t02.flac
     3:03.69       32443532 B   ---   --   ---xx   flac  0.5349  gd1966-05-19t03.flac
     4:06.69       43556732 B   ---   --   ---xx   flac  0.5246  gd1966-05-19t04.flac
     7:55.03       83797100 B   ---   --   ---xx   flac  0.5555  gd1966-05-19t05.flac
     2:52.14       30373772 B   ---   --   ---xx   flac  0.5426  gd1966-05-19t06.flac
     3:17.44       34854332 B   ---   --   ---xx   flac  0.4843  gd1966-05-19t07.flac
     3:44.57       39647708 B   ---   --   ---xx   flac  0.5068  gd1966-05-19t08.flac
     2:20.58       24832460 B   ---   --   ---xx   flac  0.5351  gd1966-05-19t09.flac
    33:41.17      356544780 B                            0.5291  (9 files)




More information about the bittorrent mailing list