[bittorrent] gd66-03-10.practise.sbd.mr.dat(48k)l

Automated Mailer noreply-bt.e at etree.org
Thu Aug 4 01:16:48 UTC 2016


Band:           Grateful Dead
Torrent Name:   gd66-03-10.practise.sbd.mr.dat(48k)l
Uploaded by:    greendude
DB Link:        
Details:        http://bt.etree.org/details.php?id=588000

Contact the seeder at http://db.etree.org/greendude

If the link to this show does not work, it was probably removed for
being non-trade-friendly.

Description / text file:
-------------------------
Grateful Dead
Unknown Location (possibly Owsley’s house in Watts) 
Los Angeles, CA
03/10/1966

Sitting On Top Of The World Practice Session


Source: sbd > 7 inch Master Reel @ 7.5ips 1/2 track > dat(48k)

01   full song
02   partial x 3
03   full song
04   talking (very low volume) *



Notes:

- This version has been provided by an anonymous source.
- If you turn the volume up very high you can hear quite clearly what is being said *
- All files are tagged.



edited and mastered
SIRMick
January 2015


shntool output:


    length     expanded size    cdr  WAVE problems  fmt   ratio  filename
     3:49.47       40506188 B   ---   --   ---xx   flac  0.5815  gd1966-03-10t01.flac
     4:11.23       44330540 B   ---   --   ---xx   flac  0.4093  gd1966-03-10t02.flac
     4:26.49       47037692 B   ---   --   ---xx   flac  0.5657  gd1966-03-10t03.flac
     1:51.16       19618076 B   ---   --   ---xx   flac  0.2298  gd1966-03-10t04.flac
    14:18.60      151492496 B                            0.4806  (4 files)





More information about the bittorrent mailing list