[bittorrent] gd66-03-09.practise.sbd.mr.dat(48k)l

Automated Mailer noreply-bt.e at etree.org
Thu Aug 4 01:14:33 UTC 2016


Band:           Grateful Dead
Torrent Name:   gd66-03-09.practise.sbd.mr.dat(48k)l
Uploaded by:    greendude
DB Link:        
Details:        http://bt.etree.org/details.php?id=587999

Contact the seeder at http://db.etree.org/greendude

If the link to this show does not work, it was probably removed for
being non-trade-friendly.

Description / text file:
-------------------------
Grateful Dead
Unknown Location (possibly Owsley’s house in Watts) 
Los Angeles, CA
03/09/1966

Practice Session


Source: sbd > 7 inch Master Reel @ 7.5ips 1/2 track > dat(48k)


01   unknown song - Pigpen vocal
02   Who Do You Love - several instrumental takes
03   Who Do You Love *
04   jam with short burst of vocal improvisation
05   jam



Notes:

- This version has been provided by an anonymous source.
- The reel is labelled "L.A. Practice"
- The same track is also the subject of shnid 125516 and a video on youtube https://www.youtube.com/watch?v=Gn-T5EJM73w *
- All files are tagged.



NB: If you know the name of the song in track 1 or recognise the jams, please let us know.  There won't be any prizes but you will
      gain great kudos for your breadth of knowledge.


edited and mastered
SIRMick
January 2015



shntool output:

    length     expanded size    cdr  WAVE problems  fmt   ratio  filename
     3:23.41       35905676 B   ---   --   ---xx   flac  0.5021  gd1966-03-09t01.flac
     3:14.41       34318076 B   ---   --   ---xx   flac  0.4886  gd1966-03-09t02.flac
     6:05.45       64491884 B   ---   --   ---xx   flac  0.5535  gd1966-03-09t03.flac
     9:05.31       96210956 B   ---   --   ---xx   flac  0.5508  gd1966-03-09t04.flac
     4:22.51       46336796 B   ---   --   ---xx   flac  0.5497  gd1966-03-09t05.flac
    26:11.59      277263388 B                            0.5372  (5 files)



More information about the bittorrent mailing list