[bittorrent] jgms1973-07-05.sbd.mr.dat(48k)l

Automated Mailer noreply-bt.e at etree.org
Thu Aug 4 01:11:42 UTC 2016


Band:           Garcia
Torrent Name:   jgms1973-07-05.sbd.mr.dat(48k)l
Uploaded by:    greendude
DB Link:        
Details:        http://bt.etree.org/details.php?id=587998

Contact the seeder at http://db.etree.org/greendude

If the link to this show does not work, it was probably removed for
being non-trade-friendly.

Description / text file:
-------------------------
Jerry Garcia and Merl Saunders
The Lion's Share
San Anselmo, CA
07/05/1973

Source: Soundboard > Master Reel (10" reel @ 7.5 ips ½ trk, taped by Betty Cantor-Jackson) > Dat (48k)


Set I

01   After Midnight
02   tuning
03   Someday Baby
04   tuning
05   (She's Got) Charisma >
06   That's All Right Mama
07   tuning
08   The System
09   The Night They Drove Old Dixie Down


Set II

01   tuning
02   I Second That Emotion
03   tuning
04   My Funny Valentine 
05   tuning
06   Finders Keepers
07   Money Honey
08   Like A Road
09   tuning
10   Merl's Tune//
11   How Sweet It Is (To Be Loved By You)



Jerry Garcia - guitar, vocals
Merl Saunders - keyboards, vocals
John Kahn - bass
Bill Vitt - drums

guest:

unknown - trumpet (Set II)



Notes:

- This recording has been provided by an anonymous source.
- A number of artifacts have been removed and several minor repairs made.  Also a few small level adjustments
- All tracks have been tagged.
 
This is probably the first time that I have listened to this show.  What was I thinking by giving it a pass.

It's outrageously good.



edited and master
SIRMick
June 2015


shntool ouput:

    length     expanded size    cdr  WAVE problems  fmt   ratio  filename
    10:21.240     119278124 B   cxx   --   ---xx   flac  0.5148  jgms1973-07-05s1t01.flac
     1:34.787      18199084 B   cxx   --   ---xx   flac  0.3844  jgms1973-07-05s1t02.flac
     9:01.027     103877164 B   cxx   --   ---xx   flac  0.5211  jgms1973-07-05s1t03.flac
     1:00.960      11704364 B   cxx   --   ---xx   flac  0.4160  jgms1973-07-05s1t04.flac
    18:39.440     214932524 B   cxx   --   ---xx   flac  0.5293  jgms1973-07-05s1t05.flac
    13:01.360     150021164 B   cxx   --   ---xx   flac  0.5848  jgms1973-07-05s1t06.flac
     1:36.547      18537004 B   cxx   --   ---xx   flac  0.4119  jgms1973-07-05s1t07.flac
    19:21.800     223065644 B   cxx   --   ---xx   flac  0.5576  jgms1973-07-05s1t08.flac
     5:58.800      68889644 B   cxx   --   ---xx   flac  0.5282  jgms1973-07-05s1t09.flac
     2:05.640      24122924 B   cxx   --   ---xx   flac  0.4291  jgms1973-07-05s2t01.flac
    13:07.147     151132204 B   cxx   --   ---xx   flac  0.5678  jgms1973-07-05s2t02.flac
     1:26.480      16604204 B   cxx   --   ---xx   flac  0.4129  jgms1973-07-05s2t03.flac
    18:44.493     215902764 B   cxx   --   ---xx   flac  0.5534  jgms1973-07-05s2t04.flac
     3:58.707      45831724 B   cxx   --   ---xx   flac  0.4090  jgms1973-07-05s2t05.flac
     9:46.667     112640044 B   cxx   --   ---xx   flac  0.5504  jgms1973-07-05s2t06.flac
     8:42.200     100262444 B   cxx   --   ---xx   flac  0.5369  jgms1973-07-05s2t07.flac
     9:16.747     106895404 B   cxx   --   ---xx   flac  0.4908  jgms1973-07-05s2t08.flac
     2:09.427      24849964 B   cxx   --   ---xx   flac  0.4098  jgms1973-07-05s2t09.flac
    26:42.573     307694124 B   cxx   --   ---xx   flac  0.5514  jgms1973-07-05s2t10.flac
     6:36.560      76139564 B   cxx   --   ---xx   flac  0.5130  jgms1973-07-05s2t11.flac
   183:12.600    2110580080 B                            0.5334  (20 files)




More information about the bittorrent mailing list