[bittorrent] gd1970-11-xx.aud.weinberg.flac16

Automated Mailer noreply-bt.e at etree.org
Wed Aug 3 01:03:04 UTC 2016


Band:           Grateful Dead
Torrent Name:   gd1970-11-xx.aud.weinberg.flac16
Uploaded by:    fangedesire
DB Link:        
Details:        http://bt.etree.org/details.php?id=587988

Contact the seeder at http://db.etree.org/fangedesire

If the link to this show does not work, it was probably removed for
being non-trade-friendly.

Description / text file:
-------------------------
NOVEMBER 1970

1. //Till the Morning Comes (1:45)
2. China Cat Sunflower > (6:24)
3. I Know You Rider (4:17)
4. Mama Tried (2:39)
5. Good Lovin' (12:35)

This is an unidentified fragment from Marty Weinberg's reels, thought to date from one of the 46th Street Rock Palace shows in Brooklyn, November 12-14, 1970.

FILLER

6. //Good Lovin' (3:14)

This fragmentary Good Lovin' from the end of a show was a stray piece on a separate reel, but dates from around the same time. Several 1970 shows end with Good Lovin', but this one does not seem to match the others on tape.

Master Reel>CD>FLAC
Taped by Marty Weinberg, Transferred by Michael Parrish.

Db.etree ID pending.


length expanded size cdr WAVE problems fmt ratio filename
1:45.73 18693740 B --- -- ---xx flac 0.5069 1. Till the Morning Comes.flac
6:24.42 67836428 B --- -- ---xx flac 0.5181 2. China Cat Sunflower.flac
4:17.39 45426572 B --- -- ---xx flac 0.5030 3. I Know You Rider.flac
2:39.38 28137020 B --- -- ---xx flac 0.4849 4. Mama Tried.flac
12:35.03 133189100 B --- -- ---xx flac 0.4978 5. Good Lovin'.flac
3:14.05 34234008 B -b- -- ---xx flac 0.4859 6. Good Lovin'.flac
30:56.50 327516868 B 0.5009 (6 files)



More information about the bittorrent mailing list