[bittorrent] Phish 2016-07-03 SPAC Saratoga Springs, NY Schoeps mk22>nbob actives>Naiant PFAs>Sonosax SX-M2>Sonosax SX-R4 **16bit**

Automated Mailer noreply-bt.e at etree.org
Tue Aug 2 22:33:23 UTC 2016


Band:           Phish
Torrent Name:   Phish 2016-07-03 SPAC Saratoga Springs, NY Schoeps mk22>nbob actives>Naiant PFAs>Sonosax SX-M2>Sonosax SX-R4 **16bit**
Uploaded by:    andyjah
DB Link:        
Details:        http://bt.etree.org/details.php?id=587985

Contact the seeder at http://db.etree.org/andyjah

If the link to this show does not work, it was probably removed for
being non-trade-friendly.

Description / text file:
-------------------------
Phish 
2016-07-03
Saratoga Performing Arts Center
Saratoga Springs, NY

mics were NOS setup in the OTS

Schoeps mk22>nbob actives>Naiant PFAs>Sonosax SX-M2>Sonosax SX-R4 (24bit/96khz)

WAV>USB>Imac>Audacity(tracking,fades)>Sony Soundforge Convrt(resample(izotope,higher than highest settings)/dither(mbit+/ultra, high dither)to 16 bit/44.1k)>XAct(FLAC 8,ffp,fix sbe,tagging)

Recorded and transferred by Andy Murray

Set One

Set One

01. crowd
02. The Wedge
03. Heavy Things
04. Tube
05. Sugar Shack
06. Lawn Boy
07. Sparkle
08. Sample in a Jar
09. It's Ice
10. Geulah Papyrus
11. Ocelot
12. Scent of a Mule
13. Possum

Set Two 

01. crowd
02. Soul Shakedown Party
03. Moma Dance >
04. Twist 
05. Joy
06. Breath and burning
07. Axilla
08. Theme from the bottom
09. Harry Hood
10. Show of life
11. encore break
12. Rock & Roll

;flac fingerprints generated by xACT 2.38 on 2016-08-02 21:12:05 +0000

ph2016-07-03.mk22.sxr4.1644.s1t01.flac:63fa8c0024a7485d4bbb5585e0fe8021
ph2016-07-03.mk22.sxr4.1644.s1t02.flac:52d95220a1144f91975acb9c93ff0ed4
ph2016-07-03.mk22.sxr4.1644.s1t03.flac:90fcfee46e2e0f32322928c01a89e87d
ph2016-07-03.mk22.sxr4.1644.s1t04.flac:33e9ece7521e2d8b637b855f77a89598
ph2016-07-03.mk22.sxr4.1644.s1t05.flac:fc700b13af82386ade370cb7b901c9db
ph2016-07-03.mk22.sxr4.1644.s1t06.flac:30d25aecbf87d728c686fa3c18cd8fb8
ph2016-07-03.mk22.sxr4.1644.s1t07.flac:4340143830b505fcd964d65669fc438e
ph2016-07-03.mk22.sxr4.1644.s1t08.flac:6fe164c822fdee42dcf76445056c2393
ph2016-07-03.mk22.sxr4.1644.s1t09.flac:13e8fc22fcb3580f793e2245e9d32a0f
ph2016-07-03.mk22.sxr4.1644.s1t10.flac:e6c3f8c0d1882d9107a7f2ecdf55aac7
ph2016-07-03.mk22.sxr4.1644.s1t11.flac:a910b23696fcbbe220dd01b6bf67fa46
ph2016-07-03.mk22.sxr4.1644.s1t12.flac:ae9edf0be7c560950ebd9f53bd9ead11
ph2016-07-03.mk22.sxr4.1644.s1t13.flac:ae65560b265578b2ce8f6225f02f04b5
ph2016-07-03.mk22.sxr4.1644.s2t01.flac:384da1bfe385f6eecc96dd8edfcbe699
ph2016-07-03.mk22.sxr4.1644.s2t02.flac:cb924dec956ca419d6daeb7f24e0baac
ph2016-07-03.mk22.sxr4.1644.s2t03.flac:3199c0fc7216930f897b3d02c53cb6d8
ph2016-07-03.mk22.sxr4.1644.s2t04.flac:4ba7424884f11548d395ffd550cd1b9d
ph2016-07-03.mk22.sxr4.1644.s2t05.flac:d09ee1a2b6a27a93882bf4ffbe7b142e
ph2016-07-03.mk22.sxr4.1644.s2t06.flac:62f12fb1fc4d3274a6480f9d2ab6c00a
ph2016-07-03.mk22.sxr4.1644.s2t07.flac:8a5996e123c1e8ffab8b0e993ae6ec93
ph2016-07-03.mk22.sxr4.1644.s2t08.flac:3ac0d715ac4093a0ac3a593de2712cd8
ph2016-07-03.mk22.sxr4.1644.s2t09.flac:80afb10fe48b9ccc48674810d6220d89
ph2016-07-03.mk22.sxr4.1644.s2t10.flac:91106ccd4e071c9493f51e5232399459
ph2016-07-03.mk22.sxr4.1644.s2t11.flac:077904634ce81b206f1701ebb317a61b
ph2016-07-03.mk22.sxr4.1644.s2t12.flac:b236fe2ce079a48702bd6dd048f0a747

    length     expanded size    cdr  WAVE problems  fmt   ratio  filename
     0:40.32        7131308 B   ---   --   -----    wav  1.0000  ph2016-07-03.mk22.sxr4.1644.s1t01.wav
     6:45.13       71472620 B   ---   --   -----    wav  1.0000  ph2016-07-03.mk22.sxr4.1644.s1t02.wav
     5:49.66       61718876 B   ---   --   -----    wav  1.0000  ph2016-07-03.mk22.sxr4.1644.s1t03.wav
     4:57.25       52449644 B   ---   --   -----    wav  1.0000  ph2016-07-03.mk22.sxr4.1644.s1t04.wav
     6:22.53       67509500 B   ---   --   -----    wav  1.0000  ph2016-07-03.mk22.sxr4.1644.s1t05.wav
     3:08.10       33186764 B   ---   --   -----    wav  1.0000  ph2016-07-03.mk22.sxr4.1644.s1t06.wav
     4:07.72       43740188 B   ---   --   -----    wav  1.0000  ph2016-07-03.mk22.sxr4.1644.s1t07.wav
     4:49.73       51151340 B   ---   --   -----    wav  1.0000  ph2016-07-03.mk22.sxr4.1644.s1t08.wav
     8:08.34       86163212 B   ---   --   -----    wav  1.0000  ph2016-07-03.mk22.sxr4.1644.s1t09.wav
     6:09.33       65169260 B   ---   --   -----    wav  1.0000  ph2016-07-03.mk22.sxr4.1644.s1t10.wav
     9:11.71       97363436 B   ---   --   -----    wav  1.0000  ph2016-07-03.mk22.sxr4.1644.s1t11.wav
    11:01.05      116612204 B   ---   --   -----    wav  1.0000  ph2016-07-03.mk22.sxr4.1644.s1t12.wav
     8:54.63       94345820 B   ---   --   -----    wav  1.0000  ph2016-07-03.mk22.sxr4.1644.s1t13.wav
     1:47.73       19046540 B   ---   --   -----    wav  1.0000  ph2016-07-03.mk22.sxr4.1644.s2t01.wav
     4:06.02       43399148 B   ---   --   -----    wav  1.0000  ph2016-07-03.mk22.sxr4.1644.s2t02.wav
    17:35.52      186224348 B   ---   --   -----    wav  1.0000  ph2016-07-03.mk22.sxr4.1644.s2t03.wav
     7:57.38       84232220 B   ---   --   -----    wav  1.0000  ph2016-07-03.mk22.sxr4.1644.s2t04.wav
     5:33.53       58865900 B   ---   --   -----    wav  1.0000  ph2016-07-03.mk22.sxr4.1644.s2t05.wav
     5:11.62       55006268 B   ---   --   -----    wav  1.0000  ph2016-07-03.mk22.sxr4.1644.s2t06.wav
     3:18.16       34964876 B   ---   --   -----    wav  1.0000  ph2016-07-03.mk22.sxr4.1644.s2t07.wav
     7:58.53       84443900 B   ---   --   -----    wav  1.0000  ph2016-07-03.mk22.sxr4.1644.s2t08.wav
    10:59.69      116409932 B   ---   --   -----    wav  1.0000  ph2016-07-03.mk22.sxr4.1644.s2t09.wav
     5:44.42       60780428 B   ---   --   -----    wav  1.0000  ph2016-07-03.mk22.sxr4.1644.s2t10.wav
     2:08.02       22583948 B   ---   --   -----    wav  1.0000  ph2016-07-03.mk22.sxr4.1644.s2t11.wav
     8:31.46       90248636 B   ---   --   -----    wav  1.0000  ph2016-07-03.mk22.sxr4.1644.s2t12.wav
   161:01.08     1704220316 B                            1.0000  (25 files)




More information about the bittorrent mailing list