[bittorrent] Phish 2016-07-03 SPAC Saratoga Springs, NY Schoeps mk4v/kc5/cmc6>Sonosax SX-R4 **16bit**

Automated Mailer noreply-bt.e at etree.org
Tue Aug 2 22:29:52 UTC 2016


Band:           Phish
Torrent Name:   Phish 2016-07-03 SPAC Saratoga Springs, NY Schoeps mk4v/kc5/cmc6>Sonosax SX-R4 **16bit**
Uploaded by:    andyjah
DB Link:        
Details:        http://bt.etree.org/details.php?id=587983

Contact the seeder at http://db.etree.org/andyjah

If the link to this show does not work, it was probably removed for
being non-trade-friendly.

Description / text file:
-------------------------
Phish 
2016-07-03
Saratoga Performing Arts Center
Saratoga Springs, NY

mics were NOS setup in the OTS

Schoeps mk4v>kc5>cmc6>Sonosax SX-R4 (24bit/96khz)

WAV>USB>Imac>Audacity(tracking,fades)>Sony Soundforge Convrt(resample(izotope,higher than highest settings)/dither(mbit+/ultra, high dither)to 16 bit/44.1k)>XAct(FLAC 8,ffp,fix sbe,tagging)

Recorded and transferred by Andy Murray

Set One

01. crowd
02. The Wedge
03. Heavy Things
04. Tube
05. Sugar Shack
06. Lawn Boy
07. Sparkle
08. Sample in a Jar
09. It's Ice
10. Geulah Papyrus
11. Ocelot
12. Scent of a Mule
13. Possum

Set Two 

01. crowd
02. Soul Shakedown Party
03. Moma Dance >
04. Twist 
05. Joy
06. Breath and burning
07. Axilla
08. Theme from the bottom
09. Harry Hood
10. Show of life
11. encore break
12. Rock & Roll

;flac fingerprints generated by xACT 2.38 on 2016-08-02 21:13:53 +0000

ph2016-07-03.mk4v.sxr4.1644.s1t01.flac:63e1b822714fb9cab847269382aec465
ph2016-07-03.mk4v.sxr4.1644.s1t02.flac:19062647fa35551bbadcbe436addfd2f
ph2016-07-03.mk4v.sxr4.1644.s1t03.flac:95785ff5b1794315797384105b50c1c1
ph2016-07-03.mk4v.sxr4.1644.s1t04.flac:d7ed87db8e4a507345f47a123ef9c5f8
ph2016-07-03.mk4v.sxr4.1644.s1t05.flac:2ff26d06d5f5cc864ba79f5f6366ecbf
ph2016-07-03.mk4v.sxr4.1644.s1t06.flac:0f0a67acbc94fd6ef7b242a3e94a1f96
ph2016-07-03.mk4v.sxr4.1644.s1t07.flac:9e8cd3af3a74efde9384959e3617bab3
ph2016-07-03.mk4v.sxr4.1644.s1t08.flac:a06f6d62e2f200c0e9cff9cd32f1a61e
ph2016-07-03.mk4v.sxr4.1644.s1t09.flac:2c67e36c65af0604d733b3e4ff0116de
ph2016-07-03.mk4v.sxr4.1644.s1t10.flac:e3ec109357cf73bbce7752ba58d11733
ph2016-07-03.mk4v.sxr4.1644.s1t11.flac:f10c1fe2e35a8b36a95452ab427352b7
ph2016-07-03.mk4v.sxr4.1644.s1t12.flac:7f6098877cd83e67285856237a126e21
ph2016-07-03.mk4v.sxr4.1644.s1t13.flac:f7ef090182e66f2c1fcdca1798fae978
ph2016-07-03.mk4v.sxr4.1644.s2t01.flac:f4b741f96ee1618dd39a50291197040b
ph2016-07-03.mk4v.sxr4.1644.s2t02.flac:921658fd13107bafa066823faf0bc4db
ph2016-07-03.mk4v.sxr4.1644.s2t03.flac:e6d7dc9cfaee62c39cc379dad07010fe
ph2016-07-03.mk4v.sxr4.1644.s2t04.flac:6adf6b45e84efdf27e5eabb95279703b
ph2016-07-03.mk4v.sxr4.1644.s2t05.flac:c3286188fad0e4d26849265b3d46080e
ph2016-07-03.mk4v.sxr4.1644.s2t06.flac:4f30cacd58465d6a43a2adf1cb1ae2f3
ph2016-07-03.mk4v.sxr4.1644.s2t07.flac:a6339664fca6e459e4a5a08963493f15
ph2016-07-03.mk4v.sxr4.1644.s2t08.flac:0c73ba7167e2e82c1a48371dca1e75e2
ph2016-07-03.mk4v.sxr4.1644.s2t09.flac:80742ae90bdc67a58085d8ce3cb390e6
ph2016-07-03.mk4v.sxr4.1644.s2t10.flac:525b646b502907ad5acb7b8ab091aa53
ph2016-07-03.mk4v.sxr4.1644.s2t11.flac:6c77b74d9fb28edd66e1e578856e5a22
ph2016-07-03.mk4v.sxr4.1644.s2t12.flac:8db3149293848e18eafae4b1b8b580a1

    length     expanded size    cdr  WAVE problems  fmt   ratio  filename
     0:40.32        7131308 B   ---   --   -----    wav  1.0000  ph2016-07-03.mk4v.sxr4.1644.s1t01.wav
     6:45.13       71472620 B   ---   --   -----    wav  1.0000  ph2016-07-03.mk4v.sxr4.1644.s1t02.wav
     5:49.66       61718876 B   ---   --   -----    wav  1.0000  ph2016-07-03.mk4v.sxr4.1644.s1t03.wav
     4:57.25       52449644 B   ---   --   -----    wav  1.0000  ph2016-07-03.mk4v.sxr4.1644.s1t04.wav
     6:22.53       67509500 B   ---   --   -----    wav  1.0000  ph2016-07-03.mk4v.sxr4.1644.s1t05.wav
     3:08.10       33186764 B   ---   --   -----    wav  1.0000  ph2016-07-03.mk4v.sxr4.1644.s1t06.wav
     4:07.72       43740188 B   ---   --   -----    wav  1.0000  ph2016-07-03.mk4v.sxr4.1644.s1t07.wav
     4:49.73       51151340 B   ---   --   -----    wav  1.0000  ph2016-07-03.mk4v.sxr4.1644.s1t08.wav
     8:08.34       86163212 B   ---   --   -----    wav  1.0000  ph2016-07-03.mk4v.sxr4.1644.s1t09.wav
     6:09.33       65169260 B   ---   --   -----    wav  1.0000  ph2016-07-03.mk4v.sxr4.1644.s1t10.wav
     9:11.71       97363436 B   ---   --   -----    wav  1.0000  ph2016-07-03.mk4v.sxr4.1644.s1t11.wav
    11:01.05      116612204 B   ---   --   -----    wav  1.0000  ph2016-07-03.mk4v.sxr4.1644.s1t12.wav
     8:54.63       94345820 B   ---   --   -----    wav  1.0000  ph2016-07-03.mk4v.sxr4.1644.s1t13.wav
     1:47.73       19046540 B   ---   --   -----    wav  1.0000  ph2016-07-03.mk4v.sxr4.1644.s2t01.wav
     4:06.02       43399148 B   ---   --   -----    wav  1.0000  ph2016-07-03.mk4v.sxr4.1644.s2t02.wav
    17:35.52      186224348 B   ---   --   -----    wav  1.0000  ph2016-07-03.mk4v.sxr4.1644.s2t03.wav
     7:57.38       84232220 B   ---   --   -----    wav  1.0000  ph2016-07-03.mk4v.sxr4.1644.s2t04.wav
     5:33.53       58865900 B   ---   --   -----    wav  1.0000  ph2016-07-03.mk4v.sxr4.1644.s2t05.wav
     5:11.62       55006268 B   ---   --   -----    wav  1.0000  ph2016-07-03.mk4v.sxr4.1644.s2t06.wav
     3:18.16       34964876 B   ---   --   -----    wav  1.0000  ph2016-07-03.mk4v.sxr4.1644.s2t07.wav
     7:58.53       84443900 B   ---   --   -----    wav  1.0000  ph2016-07-03.mk4v.sxr4.1644.s2t08.wav
    10:59.69      116409932 B   ---   --   -----    wav  1.0000  ph2016-07-03.mk4v.sxr4.1644.s2t09.wav
     5:44.42       60780428 B   ---   --   -----    wav  1.0000  ph2016-07-03.mk4v.sxr4.1644.s2t10.wav
     2:08.02       22583948 B   ---   --   -----    wav  1.0000  ph2016-07-03.mk4v.sxr4.1644.s2t11.wav
     8:31.46       90248636 B   ---   --   -----    wav  1.0000  ph2016-07-03.mk4v.sxr4.1644.s2t12.wav
   161:01.08     1704220316 B                            1.0000  (25 files)





More information about the bittorrent mailing list