[bittorrent] Phish 2016-07-01 SPAC Saratoga Springs, NY Schoeps mk22>nbobactives>Naint PFAs>Sonosax SX-M2>Sonosax SX-R4 **16bit**

Automated Mailer noreply-bt.e at etree.org
Tue Aug 2 22:25:42 UTC 2016


Band:           Phish
Torrent Name:   Phish 2016-07-01 SPAC Saratoga Springs, NY Schoeps mk22>nbobactives>Naint PFAs>Sonosax SX-M2>Sonosax SX-R4 **16bit**
Uploaded by:    andyjah
DB Link:        
Details:        http://bt.etree.org/details.php?id=587981

Contact the seeder at http://db.etree.org/andyjah

If the link to this show does not work, it was probably removed for
being non-trade-friendly.

Description / text file:
-------------------------
Phish 
2016-07-02
Saratoga Performing Arts Center
Saratoga Springs, NY

mics were NOS setup in the OTS

Schoeps mk22>nbob actives>Naiant PFAs>Sonosax SX-M2>Sonosax SX-R4 (24bit/96khz)

WAV>USB>Imac>Audacity(tracking,fades)>Sony Soundforge Convrt(resample(izotope,higher than highest settings)/dither(mbit+/ultra, high dither)to 16 bit/44.1k)>XAct(FLAC 8,ffp,fix sbe,tagging)

Recorded and transferred by Andy Murray

Set One

01. crowd
02. Crowd Control
03. 555
04. Seven Below
05. Back on the Train
06. Army of One
07. Divided Sky
08. Martian Monster
09. Rift
10. Water in the Sky
11. 46 Days
12. Walls Of The Cave

Set Two

01. crowd set 2
02. No Men In No Man's Land
03. Fuego
04. Light
05. Golden Age
06. Taste
07. The Horse
08. Silent In The Morning
09. Julius
10. A Day in the Life
11. encore break
12. Bouncing Around the Room
13. Run Like an Antelope

;flac fingerprints generated by xACT 2.38 on 2016-08-02 20:47:24 +0000

ph2016-07-02.mk22.sxr4.1644.s1t01.flac:19113cdc0cc95457abb4825af04d99bd
ph2016-07-02.mk22.sxr4.1644.s1t02.flac:ade87a58cd3c66d6af315fc24ac42a3e
ph2016-07-02.mk22.sxr4.1644.s1t03.flac:5d853fd9d8db8f66ebafefc2882daf14
ph2016-07-02.mk22.sxr4.1644.s1t04.flac:485bb1850bf07fa9e3397afaaf7c675b
ph2016-07-02.mk22.sxr4.1644.s1t05.flac:b9dd8c156e36f85f600d0219694cb432
ph2016-07-02.mk22.sxr4.1644.s1t06.flac:f038188ebd1971fc5f4c9b8fa1a3b372
ph2016-07-02.mk22.sxr4.1644.s1t07.flac:3851a13d37329a54c526e4814a524b2a
ph2016-07-02.mk22.sxr4.1644.s1t08.flac:785ae475c8190fb48c1f20138fc44cb8
ph2016-07-02.mk22.sxr4.1644.s1t09.flac:a4567ecf9578298fbde262e1b96b17f4
ph2016-07-02.mk22.sxr4.1644.s1t10.flac:78972c0e8ca49f8340bda0cc3aa5565c
ph2016-07-02.mk22.sxr4.1644.s1t11.flac:ff85adbb0868c9fc7600a0abc870128a
ph2016-07-02.mk22.sxr4.1644.s1t12.flac:e20960ebb41bc4f650c487fb084cd8b5
ph2016-07-02.mk22.sxr4.1644.s2t01.flac:29e005a551e45dc0a9fba8c419aebb53
ph2016-07-02.mk22.sxr4.1644.s2t02.flac:93da862a67f04a6f103bc9331420e2d8
ph2016-07-02.mk22.sxr4.1644.s2t03.flac:0e7e84a145a12a66b725067aa5008ea3
ph2016-07-02.mk22.sxr4.1644.s2t04.flac:ca5bb5c1a65af6abd2df622620f665af
ph2016-07-02.mk22.sxr4.1644.s2t05.flac:a34f90786b47c9a215e7bca52a215306
ph2016-07-02.mk22.sxr4.1644.s2t06.flac:20e4d98deb663a7a36bd29ff85f6aac1
ph2016-07-02.mk22.sxr4.1644.s2t07.flac:eb8db7798248f580f9953378c20fa068
ph2016-07-02.mk22.sxr4.1644.s2t08.flac:4414ac16e146f6df97bc2912841de276
ph2016-07-02.mk22.sxr4.1644.s2t09.flac:c0c0a2c23c53302aead63cf2340e0c22
ph2016-07-02.mk22.sxr4.1644.s2t10.flac:4c16519becf7c9c072418ab0d026fcc7
ph2016-07-02.mk22.sxr4.1644.s2t11.flac:99d7cb58355bb3674e02a7af1ff3421d
ph2016-07-02.mk22.sxr4.1644.s2t12.flac:3f2ac87e378ac5e4375c3fa6fdd765a0
ph2016-07-02.mk22.sxr4.1644.s2t13.flac:25b1703f17e8fe933ea437922029f958

    length     expanded size    cdr  WAVE problems  fmt   ratio  filename
     1:07.68       11978780 B   ---   --   -----    wav  1.0000  ph2016-07-02.mk22.sxr4.1644.s1t01.wav
     4:43.67       50078828 B   ---   --   -----    wav  1.0000  ph2016-07-02.mk22.sxr4.1644.s1t02.wav
     6:21.31       67281356 B   ---   --   -----    wav  1.0000  ph2016-07-02.mk22.sxr4.1644.s1t03.wav
     6:09.09       65112812 B   ---   --   -----    wav  1.0000  ph2016-07-02.mk22.sxr4.1644.s1t04.wav
     7:34.08       80104460 B   ---   --   -----    wav  1.0000  ph2016-07-02.mk22.sxr4.1644.s1t05.wav
     4:24.71       46736636 B   ---   --   -----    wav  1.0000  ph2016-07-02.mk22.sxr4.1644.s1t06.wav
    14:30.38      153557420 B   ---   --   -----    wav  1.0000  ph2016-07-02.mk22.sxr4.1644.s1t07.wav
     5:39.59       59938412 B   ---   --   -----    wav  1.0000  ph2016-07-02.mk22.sxr4.1644.s1t08.wav
     6:35.03       69685100 B   ---   --   -----    wav  1.0000  ph2016-07-02.mk22.sxr4.1644.s1t09.wav
     3:22.71       35799836 B   ---   --   -----    wav  1.0000  ph2016-07-02.mk22.sxr4.1644.s1t10.wav
     7:01.11       74290316 B   ---   --   -----    wav  1.0000  ph2016-07-02.mk22.sxr4.1644.s1t11.wav
    11:30.23      121770140 B   ---   --   -----    wav  1.0000  ph2016-07-02.mk22.sxr4.1644.s1t12.wav
     0:46.28        8180300 B   ---   --   -----    wav  1.0000  ph2016-07-02.mk22.sxr4.1644.s2t01.wav
     7:34.46       80193836 B   ---   --   -----    wav  1.0000  ph2016-07-02.mk22.sxr4.1644.s2t02.wav
    12:28.45      132053084 B   ---   --   -----    wav  1.0000  ph2016-07-02.mk22.sxr4.1644.s2t03.wav
    13:38.55      144424604 B   ---   --   -----    wav  1.0000  ph2016-07-02.mk22.sxr4.1644.s2t04.wav
     7:02.41       74537276 B   ---   --   -----    wav  1.0000  ph2016-07-02.mk22.sxr4.1644.s2t05.wav
     7:45.05       82037804 B   ---   --   -----    wav  1.0000  ph2016-07-02.mk22.sxr4.1644.s2t06.wav
     0:47.65        8443724 B   ---   --   -----    wav  1.0000  ph2016-07-02.mk22.sxr4.1644.s2t07.wav
     4:50.42       51254828 B   ---   --   -----    wav  1.0000  ph2016-07-02.mk22.sxr4.1644.s2t08.wav
     7:30.06       79394156 B   ---   --   -----    wav  1.0000  ph2016-07-02.mk22.sxr4.1644.s2t09.wav
     5:36.41       59366876 B   ---   --   -----    wav  1.0000  ph2016-07-02.mk22.sxr4.1644.s2t10.wav
     3:23.02       35813948 B   ---   --   -----    wav  1.0000  ph2016-07-02.mk22.sxr4.1644.s2t11.wav
     3:40.60       38949164 B   ---   --   -----    wav  1.0000  ph2016-07-02.mk22.sxr4.1644.s2t12.wav
    12:03.30      127607804 B   ---   --   -----    wav  1.0000  ph2016-07-02.mk22.sxr4.1644.s2t13.wav
   166:09.25     1758591500 B                            1.0000  (25 files)




More information about the bittorrent mailing list